Важное объявление!
У Нас Все раздачи мультитрекерные, при нуле пиров в релизах, можете смело вставать на закачку!
Статистика раздачи
Размер:     |    Зарегистрирован:     |    Скачан:     |   
Нет
 
     
 
 
Автор Сообщение

HUNTER

Стаж:
5 лет
Сообщений:
67935

Репутация: 101

[+] [-]
Вне форума [Профиль] [ЛС]

Ангар 18 / Hangar 18
Страна: США
Студия: Sunn Classic Pictures Inc., Coast Productions
Жанр: фантастика, боевик, триллер, биография
Год выпуска: 1980
Продолжительность: 01:37:23
Перевод 1: Профессиональный (дублированный)
Перевод 2: Профессиональный (двухголосый закадровый)
Перевод 5: Авторский (одноголосый закадровый) Ю. Сербин
Cубтитры: нет
Оригинальная аудиодорожка: английский
Режиссер:
Джеймс Л. Конуэй / James L. Conway
В ролях:
Гари Коллинз, Роберт Вон, Джеймс Хэмптон, Филип Эбботт, Джозеф Кампанелла, Памела Беллвуд, Том Холлик, Стивен Китс, Уильям Шэллерт, Даррен МакГейвин, Клифф Осмонд, Эндрю Блок, Стюарт Пэнкин, Бетти Энн Карр, Билл Закерт, Джесси Беннетт, Роберт Бристоль
Роли дублировали
Игорь Окрепилов, Александр Демьяненко, Вячеслав Захаров, Юрий Дедович, Владимир Татосов, Галина Чигинская, Юрий Соловьев
Описание:
Во время запуска спутника с космического челнока NASA происходит катастрофа. Спутник сталкивается с НЛО. Неопознанный объект совершает аварийную посадку на Земле и попадает в руки спецслужб правительства.
Астронавты, ставшие свидетелями посадки НЛО, вернувшись на Землю, пытаются узнать правду о загадочном объекте, встреченном на орбите. Спецслужбы готовы пойти на любые действия, чтобы ни один из людей не узнал о тайне Ангара 18-места, где спрятан инопланетный корабль.
Доп. информация:
Видео и звуковые дорожки взяты с этого ремукса за который спасибо rainbow.n. Главы расставлены вручную. Меню сделано с нуля. Видео сжато Rhozet Carbon Coder в VBR в два прохода, по инструкции за которую спасибо Mikky72. Диск собран полностью с помощью Sonic Scenarist.
Меню:
Есть, анимированное и озвученное. Язык английский / русский.

Сэмпл
Тип релиза: BD-DVD5 (Custom)
Контейнер: DVD-Video
Видео: NTSC 16:9 (720x480) VBR, Auto Letterboxed
Аудио 1: Russian AC3/ 2.0 / 48 kHz/ 192 kbps, Дублированный, Советский дубляж со вставками МВО
Аудио 2: English AC3/ 2.0 / 48 kHz / 192 kbps , Оригинал
Аудио 3: Russian AC3/ 2.0 / 48 kHz/ 192 kbps, Двухголосый, «НТВ+»
Аудио 4: Russian AC3/ 2.0 / 48 kHz/ 192 kbps, Ю. СербинРелиз группа Информация по сборке релиза
Используемый софт
MKVExtractGUI2 - разборка BDRemux
Carbon Coder - конвертация видео
Adobe Photoshop CS6 / DVD Architect Pro - работа с меню
Sonic Scenarist - сборка DVD
MediaInfo BDRemux
Общее
Уникальный идентификатор : 217608460029607086721944264061683518138 (0xA3B5DD6C340B6DC59F219F2E84344ABA)
Полное имя : I:\Downloads\Hangar 18\Angar.18.1980.D.BDR.1080p.mkv
Формат : Matroska
Версия формата : Version 4 / Version 2
Размер файла : 19,5 Гбайт
Продолжительность : 1 ч. 37 м.
Режим общего битрейта : Переменный
Общий поток : 28,6 Мбит/сек
Дата кодирования : UTC 2014-02-14 20:52:12
Программа кодирования : mkvmerge v6.7.0 ('Back to the Ground') 64bit built on Jan 8 2014 15:10:52
Библиотека кодирования : libebml v1.3.0 + libmatroska v1.4.1
Видео
Идентификатор : 1
Формат : AVC
Формат/Информация : Advanced Video Codec
Профиль формата : High@L4.1
Параметр CABAC формата : Да
Параметр ReFrames формата : 4 кадра
Параметр GOP формата : M=3, N=24
Идентификатор кодека : V_MPEG4/ISO/AVC
Продолжительность : 1 ч. 37 м.
Вид битрейта : Переменный
Максимальный битрейт : 33,5 Мбит/сек
Ширина : 1920 пикселей
Высота : 1080 пикселей
Соотношение сторон : 16:9
Режим частоты кадров : Постоянный
Частота кадров : 23,976 кадра/сек
Стандарт вещания : NTSC
Цветовое пространство : YUV
Субдискретизация насыщенности : 4:2:0
Битовая глубина : 8 бит
Тип развёртки : Прогрессивная
Язык : English
Default : Да
Forced : Нет
Основные цвета : BT.709
Характеристики трансфера : BT.709
Коэффициенты матрицы : BT.709
Аудио #1
Идентификатор : 2
Формат : AC-3
Формат/Информация : Audio Coding 3
Расширение режима : CM (complete main)
Параметр Endianness формата : Big
Идентификатор кодека : A_AC3
Продолжительность : 1 ч. 37 м.
Вид битрейта : Постоянный
Битрейт : 192 Кбит/сек
Каналы : 2 канала
Расположение каналов : Front: L R
Частота : 48,0 КГц
Битовая глубина : 16 бит
Метод сжатия : С потерями
Размер потока : 134 Мбайт (1%)
Заголовок : DUB
Язык : Russian
Default : Да
Forced : Нет
Аудио #2
Идентификатор : 3
Формат : AC-3
Формат/Информация : Audio Coding 3
Расширение режима : CM (complete main)
Параметр Endianness формата : Big
Идентификатор кодека : A_AC3
Продолжительность : 1 ч. 37 м.
Вид битрейта : Постоянный
Битрейт : 192 Кбит/сек
Каналы : 2 канала
Расположение каналов : Front: L R
Частота : 48,0 КГц
Битовая глубина : 16 бит
Метод сжатия : С потерями
Размер потока : 134 Мбайт (1%)
Заголовок : DVO NTV+
Язык : Russian
Default : Нет
Forced : Нет
Аудио #3
Идентификатор : 4
Формат : AC-3
Формат/Информация : Audio Coding 3
Расширение режима : CM (complete main)
Параметр Endianness формата : Big
Идентификатор кодека : A_AC3
Продолжительность : 1 ч. 37 м.
Вид битрейта : Постоянный
Битрейт : 192 Кбит/сек
Каналы : 2 канала
Расположение каналов : Front: L R
Частота : 48,0 КГц
Битовая глубина : 16 бит
Метод сжатия : С потерями
Размер потока : 134 Мбайт (1%)
Заголовок : AVO Serbin
Язык : Russian
Default : Нет
Forced : Нет
Аудио #4
Идентификатор : 5
Формат : DTS
Формат/Информация : Digital Theater Systems
Профиль формата : MA / Core
Режим : 16
Параметр Endianness формата : Big
Идентификатор кодека : A_DTS
Продолжительность : 1 ч. 37 м.
Вид битрейта : Переменный
Битрейт : Неизвестно / 768 Кбит/сек
Каналы : 1 канал
Расположение каналов : Front: C
Частота : 48,0 КГц
Битовая глубина : 16 бит
Метод сжатия : Без потерь / Lossy
Язык : English
Default : Нет
Forced : Нет
Аудио #5
Идентификатор : 6
Формат : AC-3
Формат/Информация : Audio Coding 3
Расширение режима : CM (complete main)
Параметр Endianness формата : Big
Идентификатор кодека : A_AC3
Продолжительность : 1 ч. 37 м.
Вид битрейта : Постоянный
Битрейт : 192 Кбит/сек
Каналы : 2 канала
Расположение каналов : Front: L R
Частота : 48,0 КГц
Битовая глубина : 16 бит
Метод сжатия : С потерями
Размер потока : 134 Мбайт (1%)
Язык : English
Default : Нет
Forced : Нет
Меню
00:00:00.000 : en:00:00:00.000
00:09:18.475 : en:00:09:18.475
00:22:47.199 : en:00:22:47.199
00:36:22.555 : en:00:36:22.555
00:45:44.408 : en:00:45:44.408
01:00:58.780 : en:01:00:58.780
01:10:01.406 : en:01:10:01.406
01:17:40.739 : en:01:17:40.739
DVDInfo
Title: Hangar 18_1980BD-DVD5
Size: 4.36 Gb ( 4 571 054,00 KBytes ) - DVD-5
Enabled regions: 1, 2, 3, 4, 5, 6, 7, 8
VTS_01 :
Play Length: 01:37:23
Video: NTSC 16:9 (720x480) VBR, Auto Letterboxed
Audio:
Russian (Dolby AC3, 2 ch)
English (Dolby AC3, 2 ch)
Russian (Dolby AC3, 2 ch)
Russian (Dolby AC3, 2 ch)
Скрипт
LoadPlugin("C:\Program Files (x86)\FFmpegSource2\ffms2.dll") #подключение декодера
FFVideoSource("D:\Video\Angar.mkv") #открытие видео
LoadPlugin("C:\Program Files (x86)\AutoYUY2\AutoYUY2.dll") #подключение плагина
AutoYUY2() #конверсия цветового пространства
LoadPlugin("C:\Program Files (x86)\ColorMatrix\ColorMatrix.dll") #подключение плагина
ColorMatrix(mode="Rec.709->Rec.601", inputFR=false, clamp=0) #16-235
AssumeFPS("ntsc_film")
BicubicResize(720, 480, 0, 0.5) #ресайз методом Catmull-Rom spline
#AddBorders (0,0,0,0) #bbb=00
Скриншоты менюСкриншотыПроверено на софтовом CyberLink PowerDVD и железном плейере BBK.
Раздавать буду с 9.00 до 23.00 до первых пяти скачавших.
Потом по возможности.

Просьба к скачавшим - не уходите сразу после скачивания с раздачи!!!

_________________
Показать сообщения:    

Текущее время: Сегодня 22:54

Часовой пояс: GMT



Вы не можете начинать темы
Вы не можете отвечать на сообщения
Вы не можете редактировать свои сообщения
Вы не можете удалять свои сообщения
Вы не можете голосовать в опросах
Вы не можете прикреплять файлы к сообщениям
Вы не можете скачивать файлы