Важное объявление!
У Нас Все раздачи мультитрекерные, при нуле пиров в релизах, можете смело вставать на закачку!
 
Автор Сообщение

HUNTER

Стаж:
4 года 7 месяцев
Сообщений:
61531

Репутация: 101

[+] [-]
Вне форума [Профиль] [ЛС]

"Ангара". В космос по-русски
Дата/Год выпуска: 2014
Страна: Россия
Жанр: космос
Продолжительность: 00:44:27
Перевод: Не требуется
Русские субтитры: нет
Оригинальная аудиодорожка: русский
Режиссер: Дмитрий Ушаков
Телеканал: Россия 1
Описание: 23 декабря 2014 года. Космодром Плесецк. В космос уходит ракета, названная в честь великой русской реки - "Ангара".
Такой ракеты у нас не было еще никогда. Она вобрала в себя все лучшие достижения советской и российской космонавтики, и будущее русского космоса во многом зависело от того, когда и как эту ракету научат летать.
Создатели фильма расскажут, как создавалась "Ангара", почему ее называют "космическим конструктором", какие политические интриги и атаки конкурентов на международном рынке приходилось преодолевать ее разработчикам и поможет ли "Ангара" добраться человеку до Луны и Марса.
Автор сценария: Вадим Кондаков
качество: SATRip
формат: AVI
Видео: 720x400 (1.80:1), 25 fps, XviD build 64 ~1743 kbps avg, 0.24 bit/pixel
Аудио: 48 kHz, MPEG Layer 3, 2 ch, ~128.00 kbps avg

MediaInfo

Формат : AVIФормат/Информация : Audio Video InterleaveРазмер файла : 598 МбайтПродолжительность : 44 м.Общий поток : 1882 Кбит/секБиблиотека кодирования : VirtualDub build 30009/release
ВидеоИдентификатор : 0Формат : MPEG-4 VisualПрофиль формата : Advanced Simple@L5Параметр BVOP формата : 2Параметр QPel формата : НетПараметр GMC формата : Без точки переходаПараметр матрицы формата : Default (MPEG)Идентификатор кодека : XVIDИдентификатор кодека/Подсказка : XviDПродолжительность : 44 м.Битрейт : 1744 Кбит/секШирина : 720 пикселейВысота : 400 пикселейСоотношение сторон : 16:9Частота кадров : 25,000 кадров/секЦветовое пространство : YUVСубдискретизация насыщенности : 4:2:0Битовая глубина : 8 битТип развёртки : ПрогрессивнаяМетод сжатия : С потерямиБит/(Пиксели*Кадры) : 0.242Размер потока : 555 Мбайт (93%)Библиотека кодирования : XviD 64
АудиоИдентификатор : 1Формат : MPEG AudioВерсия формата : Version 1Профиль формата : Layer 3Режим : Joint stereoРасширение режима : MS StereoИдентификатор кодека : 55Идентификатор кодека/Подсказка : MP3Продолжительность : 44 м.Вид битрейта : ПостоянныйБитрейт : 128 Кбит/секКаналы : 2 каналаЧастота : 48,0 КГцМетод сжатия : С потерямиРазмер потока : 40,7 Мбайт (7%)Выравнивание : Разделение по промежуткамПродолжительность промежутка : 40 мс. (1,00 видеокадр)Время предзагрузки промежутка : 500 мс.

Скриншоты


_________________
Показать сообщения:    

Текущее время: Сегодня 02:57

Часовой пояс: GMT



Вы не можете начинать темы
Вы не можете отвечать на сообщения
Вы не можете редактировать свои сообщения
Вы не можете удалять свои сообщения
Вы не можете голосовать в опросах
Вы не можете прикреплять файлы к сообщениям
Вы не можете скачивать файлы
Наши партнеры: интернет магазин Ивановского трикотажа textilla.ru