Ивановский Торрент трекер
Яндекс.Погода
 

[Цитировать]
HUNTER

Анастасия / Anastasia
Страна: США (GoldenFilms)
Жанр: Мультфильм, семейный
Продолжительность: 00:50:37
Год выпуска: 1997
Перевод: Профессиональный (дублированный)
Русские субтитры: нет
Режиссёр: Диана Эшкенази / Diane Eskenazi-Описание: История о загадочной судьбе княжны Анастасии — дочери последнего русского царя Николая II, которая по некоторым источникам считается оставшейся в живых. Александр, служивший во дворце, переоделся большевиком в надежде спасти ее жизнь…-Качество: DVB
Формат: TS
Видео: 528x576 (4:3) @ 768x576, 25.000 fps, MPEG-2 Video, ~2864 Kbps
Аудио 1: 48.0 KHz, MPEG-1 Audio layer 2, 1 ch, 96 Kbps (Русский)
Аудио 2: 48.0 KHz, MPEG-1 Audio layer 2, 1 ch, 96 Kbps (English)
Субтитры: отсутствуют
Релиз: Благодарность xfiles за запись мультфильма.

Подробные технические данные

ОбщееИдентификатор : 1 (0x1)Полное имя : E:\MULTFILMS\Anastasia 1997 GoldenFilms JimJam.rus.eng.tsФормат : MPEG-TSРазмер файла : 1,14 ГбайтПродолжительность : 50 м.Режим общего битрейта : ПеременныйОбщий поток : 3216 Кбит/секМаксимальный общий битрейт : 35,5 Мбит/сек
ВидеоИдентификатор : 4113 (0x1011)Идентификатор меню : 1 (0x1)Формат : MPEG VideoВерсия формата : Version 2Профиль формата : Main@MainПараметр BVOP формата : ДаПараметр матрицы формата : ВыборочнаяПараметр GOP формата : M=3, N=12Идентификатор кодека : 2Продолжительность : 50 м.Вид битрейта : ПеременныйБитрейт : 2864 Кбит/секМаксимальный битрейт : 5000 Кбит/секШирина : 528 пикселейВысота : 576 пикселейСоотношение сторон : 4:3Частота кадров : 25,000 кадров/секЦветовое пространство : YUVСубдискретизация насыщенности : 4:2:0Битовая глубина : 8 битТип развёртки : ЧересстрочнаяПорядок развёртки : Верхнее поле первоеМетод сжатия : С потерямиБит/(Пиксели*Кадры) : 0.377Временной код первого кадра : 00:00:00:00Оригинал временного кода : Group of pictures headerРазмер потока : 1,01 Гбайт (89%)
Аудио #1Идентификатор : 4352 (0x1100)Идентификатор меню : 1 (0x1)Формат : MPEG AudioВерсия формата : Version 1Профиль формата : Layer 2Идентификатор кодека : 4Продолжительность : 50 м.Вид битрейта : ПостоянныйБитрейт : 96,0 Кбит/секКаналы : 1 каналЧастота : 48,0 КГцМетод сжатия : С потерямиРазмер потока : 34,8 Мбайт (3%)Язык : Russian
Аудио #2Идентификатор : 4353 (0x1101)Идентификатор меню : 1 (0x1)Формат : MPEG AudioВерсия формата : Version 1Профиль формата : Layer 2Идентификатор кодека : 4Продолжительность : 50 м.Вид битрейта : ПостоянныйБитрейт : 96,0 Кбит/секКаналы : 1 каналЧастота : 48,0 КГцМетод сжатия : С потерямиРазмер потока : 34,8 Мбайт (3%)Язык : English

Скриншоты


Показать сообщения:    

Текущее время: 20-Сен 22:45

Часовой пояс: UTC - 1


Вы не можете начинать темы
Вы не можете отвечать на сообщения
Вы не можете редактировать свои сообщения
Вы не можете удалять свои сообщения
Вы не можете голосовать в опросах
Вы не можете прикреплять файлы к сообщениям
Вы не можете скачивать файлы

!ВНИМАНИЕ!
Сайт не предоставляет электронные версии произведений, а занимается лишь коллекционированием и каталогизацией ссылок, присылаемых и публикуемых на форуме нашими читателями. Если вы являетесь правообладателем какого-либо представленного материала и не желаете, чтобы ссылка на него находилась в нашем каталоге, свяжитесь с нами, и мы незамедлительно удалим ее. Файлы для обмена на трекере предоставлены пользователями сайта, и администрация не несет ответственности за их содержание. Просьба не заливать файлы, защищенные авторскими правами, а также файлы нелегального содержания!