Ивановский Торрент трекер
Яндекс.Погода
Статистика раздачи
Размер:  24.75 GB   |    Зарегистрирован:  1 год 10 месяцев   |    Скачан:  0 раз

Полного источника не было: Никогда

 
     
 
 
 

[Цитировать]
HUNTER

Амстердамский кошмар / Amsterdamned
Год выпуска: 1988
Страна: Нидерланды
Жанр: ужасы, боевик, триллер
Продолжительность: 01:53:37
Перевод1: Профессиональный (многоголосый закадровый)(НТВ)
Перевод2: Одноголосый (закадровый)(А.Васильев)
Субтитры: английские
Оригинальная аудиодорожка: голандский
Режиссер: Дик Маас / Dick Maas
В ролях: Хуб Стапель, Моник ван де Вен, Серж-Анри Вальке, Tanneke Hartzuiker, Wim Zomer, Хидде Мас, Лу Ландре, Татум Дагелет, Эдвин Баккер, Door van Boeckel
Описание: Молодому детективу полиции Эрику Виссеру поручают расследовать серию загадочных убийств, совершенных неизвестным маньяком в каналах Амстердама. Бессмысленность и зверская жестокость убийств не позволяет сделать каких-либо выводов и затрудняют следствие.
Как успокоить местное население? С помощью помощника и молодой женщины Лауры Эрику удается напасть на след преступника.


Качество: BDRemux 1080p
Формат: MKV
Видео кодек: H.264
Аудио кодек: AC3, FLAC
Видео: 1920 x 1080 / MPEG-4 / AVC Video / 29412 kbps / 1080p / 23,976 fps / 16:9 / High Profile 4.1
Аудио1: Русский / AC3 / 2.0 / 192 Kbps / 48,0 kHz(NTV)
Аудио2: Русский / AC3 / 2.0 / 192 Kbps / 48,0 kHz(Vasilyev)
Аудио3: Nederlandse / FLAC / 2.0 / 48 kHz / ~1386 kbps (Original)
Субтитры: Soft Sub (SRT)
Главы

MediaInfo

Общее
Уникальный идентификатор : 180126933032066993868443131861540000767 (0x87832F77244B5EDDA53B7184676FD3FF)
Полное имя : G:\Amsterdamned.1988.BDRemux.1080p.2xRus.Dut.mkv
Формат : Matroska
Версия формата : Version 4 / Version 2
Размер файла : 24,7 Гбайт
Продолжительность : 1 ч. 53 м.
Режим общего битрейта : Переменный
Общий поток : 31,2 Мбит/сек
Дата кодирования : UTC 2015-10-21 18:53:38
Программа кодирования : mkvmerge v7.3.0 ('Nouages') 32bit built on Oct 22 2014 18:44:01
Библиотека кодирования : libebml v1.3.0 + libmatroska v1.4.1
_STATISTICS_WRITING_APP : mkvmerge v7.3.0 ('Nouages') 32bit built on Oct 22 2014 18:44:01
_STATISTICS_WRITING_DATE_UTC : 2015-10-21 18:53:38
_STATISTICS_TAGS : BPS DURATION NUMBER_OF_FRAMES NUMBER_OF_BYTES
DURATION : 01:44:22.555000000
NUMBER_OF_FRAMES : 931
NUMBER_OF_BYTES : 33112
Видео
Идентификатор : 1
Формат : AVC
Формат/Информация : Advanced Video Codec
Профиль формата : High@L4.1
Параметр CABAC формата : Да
Параметр ReFrames формата : 4 кадра
Идентификатор кодека : V_MPEG4/ISO/AVC
Продолжительность : 1 ч. 53 м.
Вид битрейта : Переменный
Максимальный битрейт : 36,0 Мбит/сек
Ширина : 1920 пикселей
Высота : 1080 пикселей
Соотношение сторон : 16:9
Режим частоты кадров : Постоянный
Частота кадров : 23,976 кадра/сек
Стандарт вещания : NTSC
Цветовое пространство : YUV
Субдискретизация насыщенности : 4:2:0
Битовая глубина : 8 бит
Тип развёртки : Прогрессивная
Заголовок : Amsterdamned 1988 1080p GER Blu-ray AVC DTS-HD MA 2.0
Default : Нет
Forced : Нет
Цветовой диапазон : Limited
Основные цвета : BT.709
Характеристики трансфера : BT.709
Коэффициенты матрицы : BT.709
Аудио #1
Идентификатор : 2
Формат : AC-3
Формат/Информация : Audio Coding 3
Расширение режима : CM (complete main)
Параметр Endianness формата : Big
Идентификатор кодека : A_AC3
Продолжительность : 1 ч. 53 м.
Вид битрейта : Постоянный
Битрейт : 192 Кбит/сек
Каналы : 2 канала
Расположение каналов : Front: L R
Частота : 48,0 КГц
Метод сжатия : С потерями
Размер потока : 156 Мбайт (1%)
Заголовок : NTV AC3 2.0 192 kbps
Язык : Russian
Default : Нет
Forced : Нет
Аудио #2
Идентификатор : 3
Формат : AC-3
Формат/Информация : Audio Coding 3
Расширение режима : CM (complete main)
Параметр Endianness формата : Big
Идентификатор кодека : A_AC3
Продолжительность : 1 ч. 53 м.
Вид битрейта : Постоянный
Битрейт : 192 Кбит/сек
Каналы : 2 канала
Расположение каналов : Front: L R
Частота : 48,0 КГц
Метод сжатия : С потерями
Размер потока : 156 Мбайт (1%)
Заголовок : Vasilyev AC3 2.0 192 kbps
Язык : Russian
Default : Нет
Forced : Нет
Аудио #3
Идентификатор : 4
Формат : FLAC
Формат/Информация : Free Lossless Audio Codec
Идентификатор кодека : A_FLAC
Продолжительность : 1 ч. 53 м.
Вид битрейта : Переменный
Каналы : 2 канала
Частота : 48,0 КГц
Битовая глубина : 24 бит
Заголовок : Original FLAC ~1386 kbps
Библиотека кодирования : libFLAC 1.2.1 (UTC 2007-09-17)
Язык : Dutch
Default : Нет
Forced : Нет
Текст
Идентификатор : 5
Формат : UTF-8
Идентификатор кодека : S_TEXT/UTF8
Идентификатор кодека/Информация : UTF-8 Plain Text
Язык : English
Default : Нет
Forced : Нет
Меню
00:00:00.000 : en:00:00:00.000
00:09:36.409 : en:00:09:36.409
00:21:51.769 : en:00:21:51.769
00:28:00.429 : en:00:28:00.429
00:35:17.615 : en:00:35:17.615
00:43:07.335 : en:00:43:07.335
00:51:24.206 : en:00:51:24.206
01:02:40.340 : en:01:02:40.340
01:10:17.755 : en:01:10:17.755
01:17:47.955 : en:01:17:47.955
01:26:32.270 : en:01:26:32.270
01:37:29.927 : en:01:37:29.927

Скриншоты

[iv-torrents.ru].t53595.torrent
Торрент: Зарегистрирован [ 2016-01-24 05:57 ] · 7A3B11C276669F5AF52DBFA680F9C4E20FFC500F

Скачать .torrent

Скачать

124 KB

Статус: проверено
Скачан: 0 раз
Размер: 24.75 GB
terms.php


Показать сообщения:    

Текущее время: 18-Дек 02:55

Часовой пояс: UTC ± 0


Вы не можете начинать темы
Вы не можете отвечать на сообщения
Вы не можете редактировать свои сообщения
Вы не можете удалять свои сообщения
Вы не можете голосовать в опросах
Вы не можете прикреплять файлы к сообщениям
Вы можете скачивать файлы

!ВНИМАНИЕ!
Сайт не предоставляет электронные версии произведений, а занимается лишь коллекционированием и каталогизацией ссылок, присылаемых и публикуемых на форуме нашими читателями. Если вы являетесь правообладателем какого-либо представленного материала и не желаете, чтобы ссылка на него находилась в нашем каталоге, свяжитесь с нами, и мы незамедлительно удалим ее. Файлы для обмена на трекере предоставлены пользователями сайта, и администрация не несет ответственности за их содержание. Просьба не заливать файлы, защищенные авторскими правами, а также файлы нелегального содержания!