Ивановский Торрент трекер
Яндекс.Погода
 

[Цитировать]
Smir

Американский пирог: Все в сборе / American Reunion«Самый лакомый кусочек на конец»- -Год выпуска: 2012
Страна: США
Жанр: комедия
Продолжительность: 01:52:52
Перевод: Профессиональный (полное дублирование)
Режиссер: Джон Харвитц / Jon Hurwitz, Хейден Шлоссберг / Hayden Schlossberg
В ролях:

Джейсон Биггз (Jim Levenstein,), Элисон Хэннигэн (Michelle,), Крис Клейн (Oz,), Томас Иэн Николас (Kevin,), Тара Рид (Vicky,), Шонн Уильям Скотт (Stifler,), Мена Сувари (Heather,), Эдди Кэй Томас (Finch,), Джон Чо (MILF Guy #2), Дженнифер Кулидж (Stifler's Mom,), Юджин Леви (Jim's Dad,), Наташа Лионн (Jessica,)-Описание:     Герои «Американского пирога» встречаются вновь спустя несколько лет. Они докажут, что даже время и расстояние не в силах разрушить их дружбу. Летом 1999-го четверо мичиганских парней решили расстаться с невинностью. Прошли годы, и теперь друзья вернулись домой уже повзрослевшими, чтобы вспомнить прошлое и оторваться на полную катушку.-
MPAA: - Лицам до 17 лет обязательно присутствие взрослого-Качество: HDRip
Формат: AVI
Видео: 720x384 (1.875); XviD; 1690 Kbps; 23,976 fps; 0,255 bit/pixel
Аудио №1: AC3; 448 Kbps; Front: L C R, Side: L R, LFE ch; 16 bit; 48 kHz
Аудио №2: AC3; 448 Kbps; Front: L C R, Side: L R, LFE ch; 16 bit; 48 kHz
Семпл--

Дополнительная информация

  • «Все в сборе» это первый из четырёх «Американских пирогов», где сценарий не был написан Адамом Херцем. Он остался в проекте в статусе исполнительного продюсера и присматривал за работой сценаристов Джона Харвитца и Хейдена Шлоссберга.
  • Это пятый фильм со словом «Американский» в названии в карьере Мены Сувари. Помимо двух первых «Пирогов» она снялась также в комедии «Американская девственница» (1999) и в драме «Красота по-американски» (2000).
  • Сцены в школе снимались с 11 по 15 июля 2011 года в Newton High School в небольшом городке Ковингтон, штат Джорджия. В них было задействовано 200 участников массовки главным образом из местных жителей. Продюсерская компания заплатила школьной администрации округа Ньютон десять тысяч долларов за использование помещений школы.
  • Знаменитый игрок американской футбольной команды Нью-Инглэнд Пэтриотс Чад Очочинко появляется в камео в качестве самого себя.
  • Сцены на пляже снимались в конце июля 2011 года на берегу водохранилища озеро Ланье в штате Джорджия с участием 100 человек массовки. Продюсеры посчитали, что его берега визуально практически не отличаются от побережья озера Мичиган, где по сценарию происходит действие фильма. Местные власти получили 23 тысячи долларов в качестве компенсации за предоставление места для съёмок и связанные с этим неудобства.
  • Все три первых части «Американского пирога» выходили в прокат в начале августа, тогда как четвёртая была выпущена на Пасху в первой половине апреля.
-Сценарий: Джон Харвитц / Jon Hurwitz, Хейден Шлоссберг / Hayden Schlossberg, Адам Херц / Adam Herz
Продюсер: Крис Мур / Chris Moore, Крэйг Перри / Craig Perry, Уоррен Зайд / Warren Zide, Джейсон Биггз / Jason Biggs, Луис Дж. Фридман / Louis G. Friedman
Оператор: Дарин Окада / Daryn Okada
Композитор: Лайл Уоркмэн / Lyle Workman
Бюджет: $50 000 000
Сборы в США: $56 758 835
Сборы в России: $11 818 343
Сборы в мире: $234 195 844
Мировая премьера: 4 апреля 2012
Релиз на DVD: 9 августа 2012, «Двадцатый Век Фокс СНГ»
Релиз на Blu-ray: 9 августа 2012, «Двадцатый Век Фокс СНГ»

Скриншоты

Media Info

General
Complete name : D:\Amerikanski.pirog.vse.v.sbore.2012.D.HDRip.2100MB.avi
Format : AVI
Format/Info : Audio Video Interleave
Format profile : OpenDML
File size : 2.05 GiB
Duration : 1h 52mn
Overall bit rate : 2 605 Kbps
Writing application : VirtualDubMod 1.5.10.3 | www.virtualdub-fr.org || (build 2550/release)
Writing library : VirtualDubMod build 2550/release
Video
ID : 0
Format : MPEG-4 Visual
Format profile : Advanced Simple@L5
Format settings, BVOP : 2
Format settings, QPel : No
Format settings, GMC : No warppoints
Format settings, Matrix : Custom
Codec ID : XVID
Codec ID/Hint : XviD
Duration : 1h 52mn
Bit rate : 1 691 Kbps
Width : 720 pixels
Height : 384 pixels
Display aspect ratio : 1.875
Frame rate : 23.976 fps
Color space : YUV
Chroma subsampling : 4:2:0
Bit depth : 8 bits
Scan type : Progressive
Compression mode : Lossy
Bits/(Pixel*Frame) : 0.255
Stream size : 1.33 GiB (65%)
Writing library : XviD 1.2.1 (UTC 2008-12-04)
Audio #1
ID : 1
Format : AC-3
Format/Info : Audio Coding 3
Mode extension : CM (complete main)
Codec ID : 2000
Duration : 1h 52mn
Bit rate mode : Constant
Bit rate : 448 Kbps
Channel(s) : 6 channels
Channel positions : Front: L C R, Side: L R, LFE
Sampling rate : 48.0 KHz
Bit depth : 16 bits
Compression mode : Lossy
Stream size : 362 MiB (17%)
Alignment : Split accross interleaves
Interleave, duration : 42 ms (1.00 video frame)
Interleave, preload duration : 500 ms
Audio #2
ID : 2
Format : AC-3
Format/Info : Audio Coding 3
Mode extension : CM (complete main)
Codec ID : 2000
Duration : 1h 52mn
Bit rate mode : Constant
Bit rate : 448 Kbps
Channel(s) : 6 channels
Channel positions : Front: L C R, Side: L R, LFE
Sampling rate : 48.0 KHz
Bit depth : 16 bits
Compression mode : Lossy
Stream size : 362 MiB (17%)
Alignment : Split accross interleaves
Interleave, duration : 42 ms (1.00 video frame)
Interleave, preload duration : 500 ms
Показать сообщения:    

Текущее время: 21-Сен 06:05

Часовой пояс: UTC - 1


Вы не можете начинать темы
Вы не можете отвечать на сообщения
Вы не можете редактировать свои сообщения
Вы не можете удалять свои сообщения
Вы не можете голосовать в опросах
Вы не можете прикреплять файлы к сообщениям
Вы не можете скачивать файлы

!ВНИМАНИЕ!
Сайт не предоставляет электронные версии произведений, а занимается лишь коллекционированием и каталогизацией ссылок, присылаемых и публикуемых на форуме нашими читателями. Если вы являетесь правообладателем какого-либо представленного материала и не желаете, чтобы ссылка на него находилась в нашем каталоге, свяжитесь с нами, и мы незамедлительно удалим ее. Файлы для обмена на трекере предоставлены пользователями сайта, и администрация не несет ответственности за их содержание. Просьба не заливать файлы, защищенные авторскими правами, а также файлы нелегального содержания!