Важное объявление!
У Нас Все раздачи мультитрекерные, при нуле пиров в релизах, можете смело вставать на закачку!
 
Автор Сообщение

HUNTER

Стаж:
4 года 10 месяцев
Сообщений:
65531

Репутация: 101

[+] [-]
Вне форума [Профиль] [ЛС]

Американский Папаша / American Dad--
--Год выпуска:2012-2013
Страна:США
Жанр: Мультсериал, Комедия, Пародия
Продолжительность: ~00:22:00
Кол-во эпизодов: 1-18 из 18
Перевод 1: Профессиональный (многоголосый закадровый)
Перевод 2: Профессиональный (многоголосый закадровый)
Субтитры: есть (Русские)-Режиссёр:Сет Макфарлейн / Seth MacFarlane-Описание:
Американский папа — это американский телевизионный сериал производства студии «Андердог» (Underdog Productions) и «Фаззи Дор» (Fuzzy Door Productions) по заказу 20th Century Fox. Он был придуман и разработан, в большей степени, Сетом Макфарлейном, создателем сериала «Гриффины». «Американский папаша» является ярким представителем сатирического мультипликационного сериала, о жизни американской семьи. Сюжет разворачивается вокруг семьи Смитов, которая состоит из четырёх человек, одного пришельца и говорящей «Золотой рыбки». Сериал постоянно концентрируется на различных особенностях поп-культуры, политики, религии и любых других тематиках, часто фигурирующих в обществе. В сериале часто звучат «колкости» о современном обществе и тонкий юмор, показывающий особенности Американского общества.-Качество: WEB-DL 720p
Формат: MKV
Видео: 1280x720, 23.976 fps, ~4Mbps, 0.176 bit/pixel
Аудио:1. AC3 2.0, 48 KHz, 192 kbps [RUS, 2x2]
Аудио:2. AC3 5.1, 48 KHz, 384 kbps [ENG, Filiza Studio]
Аудио:3. AC3 5.1, 48 KHz, 384 kbps [ENG, Оригинал]
-

Эпизоды

01. Hot Water
02. Hurricane!
03. A Ward Show
04. The Worst Stan
05. Virtual In-Stanity
06. The Scarlett Getter
07. Season’s Beatings
08. The Unbrave One
09. Stanny Tendergrass
10. Wheels & the Legman and the Case of Grandpa’s Key
11. Old Stan in the Mountain
12. The Wrestler
13. Dr. Klaustus
14. Stan’s Best Friend
15. Less Money, Mo’ Problems
16. The Kidney Stays In The Picture
17. Ricky Spanish
18. Toy Whorey
-

MediaInfo

E:\American Dad! Season 7\American Dad! S07E01 Hot Water.mkv
General
Unique ID : 187924490082182918979818143737853783287 (0x8D60F0B5C03770E6A2AA6593D1282CF7)
Complete name : E:\American Dad! Season 7\American Dad! S07E01 Hot Water.mkv
Format : Matroska
Format version : Version 4 / Version 2
File size : 774 MiB
Duration : 21mn 53s
Overall bit rate : 4 943 Kbps
Movie name : American Dad! [Season 7] (2011)
Encoded date : UTC 2013-05-21 14:07:33
Writing application : mkvmerge v6.0.0 ('Coming Up For Air') built on Jan 20 2013 09:52:00
Writing library : libebml v1.3.0 + libmatroska v1.4.0
Video #1
ID : 1
Format : AVC
Format/Info : Advanced Video Codec
Format profile : [url=mailto:High@L3.1]High@L3.1[/url]
Format settings, CABAC : No
Format settings, ReFrames : 2 frames
Codec ID : V_MPEG4/ISO/AVC
Duration : 21mn 53s
Bit rate : 3 884 Kbps
Width : 1 280 pixels
Height : 720 pixels
Display aspect ratio : 16:9
Frame rate mode : Constant
Frame rate : 23.976 fps
Color space : YUV
Chroma subsampling : 4:2:0
Bit depth : 8 bits
Scan type : Progressive
Bits/(Pixel*Frame) : 0.176
Stream size : 608 MiB (79%)
Title : American Dad! S07 E01 - Hot Water - Release by uxTuaHgp
Language : English
Default : Yes
Forced : No
Color primaries : BT.709
Transfer characteristics : BT.709
Matrix coefficients : BT.709
Audio #2
ID : 2
Format : AC-3
Format/Info : Audio Coding 3
Mode extension : CM (complete main)
Format settings, Endianness : Big
Codec ID : A_AC3
Duration : 21mn 53s
Bit rate mode : Constant
Bit rate : 192 Kbps
Channel(s) : 2 channels
Channel positions : Front: L R
Sampling rate : 48.0 KHz
Bit depth : 16 bits
Compression mode : Lossy
Stream size : 30.1 MiB (4%)
Title : 2x2
Language : Russian
Default : Yes
Forced : No
Audio #3
ID : 3
Format : AC-3
Format/Info : Audio Coding 3
Mode extension : CM (complete main)
Format settings, Endianness : Big
Codec ID : A_AC3
Duration : 21mn 53s
Bit rate mode : Constant
Bit rate : 384 Kbps
Channel(s) : 6 channels
Channel positions : Front: L C R, Side: L R, LFE
Sampling rate : 48.0 KHz
Bit depth : 16 bits
Compression mode : Lossy
Stream size : 60.1 MiB (8%)
Title : Filiza Studio
Language : Russian
Default : No
Forced : No
Audio #4
ID : 4
Format : AC-3
Format/Info : Audio Coding 3
Mode extension : CM (complete main)
Format settings, Endianness : Big
Codec ID : A_AC3
Duration : 21mn 53s
Bit rate mode : Constant
Bit rate : 384 Kbps
Channel(s) : 6 channels
Channel positions : Front: L C R, Side: L R, LFE
Sampling rate : 48.0 KHz
Bit depth : 16 bits
Compression mode : Lossy
Stream size : 60.1 MiB (8%)
Language : English
Default : No
Forced : No
Text #5
ID : 5
Format : UTF-8
Codec ID : S_TEXT/UTF8
Codec ID/Info : UTF-8 Plain Text
Language : English
Default : No
Forced : No
Text #6
ID : 6
Format : UTF-8
Codec ID : S_TEXT/UTF8
Codec ID/Info : UTF-8 Plain Text
Title : notabenoid
Language : Russian
Default : No
Forced : No
-

Скриншоты


_________________
Показать сообщения:    

Текущее время: Сегодня 13:41

Часовой пояс: GMT



Вы не можете начинать темы
Вы не можете отвечать на сообщения
Вы не можете редактировать свои сообщения
Вы не можете удалять свои сообщения
Вы не можете голосовать в опросах
Вы не можете прикреплять файлы к сообщениям
Вы не можете скачивать файлы