Важное объявление!
У Нас Все раздачи мультитрекерные, при нуле пиров в релизах, можете смело вставать на закачку!
 
Автор Сообщение

HUNTER

Стаж:
4 года 7 месяцев
Сообщений:
61614

Репутация: 101

[+] [-]
Вне форума [Профиль] [ЛС]

Американские тигры / American Tigers / Army of Convicts
Страна: США
Студия: Gun for Hire Films
Жанр: боевик
Год выпуска: 1996
Продолжительность: 01:33:21
Перевод: Авторский одноголосый (Кузнецов)
Cубтитры: нет
Оригинальная аудиодорожка: английский
Режиссер: Дэвид Уорт / David Worth
В ролях: Синтия Ротрок, Сэм Джонс, Дональд Гибб, Рорион Грейси, Джо Де Анжелис, Джо Эстевес
Описание: Международные террористы готовят военный переворот в США. Чтобы предотвратить неминуемое кровопролитие, руководители спецслужб поручают сержанту Рэнсому создать отряд особого назначения «Американские тигры» из числа заключенных для ликвидации бунтовщиков.
Доп. информация: За синхронизацию огромное спасибо Нордер.
При пересборе двд были использованы программы:
PgcDemux - разделение компонентов диска на файлы
Muxman - мультиплексирование и авторинг DVD
VobBlanker - реавторинг DVD

Скрин завершения проекта

Бонусы: Трейлер
Сэмпл: http://sendfile.su/1124663
Тип релиза: DVD9 (Custom)
Контейнер: DVD-Video
Видео: PAL 4:3 (720x576) VBR
Аудио: Russian (Dolby AC3, 192 Kbp, 2 ch)
Аудио 2: Deutsch (Dolby AC3, 192 Kbps, 2 ch)
Аудио 3: English (Dolby AC3, 384 Kbps, 6 ch)

DVDInfo

Size: 6.58 Gb ( 6 898 830 KBytes ) - DVD-9
Enabled regions: 1, 2, 3, 4, 5, 6, 7, 8
VTS_01 :
Play Length: 01:33:20+00:00:01
Video: PAL 4:3 (720x576) VBR
Audio:
Russian (Dolby AC3, 2 ch)
Deutsch (Dolby AC3, 2 ch)
English (Dolby AC3, 6 ch)
VTS_02 :
Play Length: 00:00:10+00:00:06
Video: PAL 16:9 (720x576) VBR, Auto Pan&Scan, Auto Letterboxed
Audio:
Deutsch (Dolby AC3, 2 ch)
VTS_03 :
Play Length: 00:01:31+00:01:56+00:02:06+00:02:15+00:01:52+00:01:46+00:01:59+00:03:49
Video: PAL 4:3 (720x576) VBR
Audio:
Not specified (Dolby AC3, 2 ch)
Menu Video:
PAL 16:9 (720x576) VBR
Auto Pan&Scan
Menu Subtitles:
Not specified
Menu English Language Unit :
Root Menu

MediaInfo

General
Complete name : F:\American Tigers 1996\VIDEO_TS\VTS_01_1.VOB
Format : MPEG-PS
File size : 1 024 MiB
Duration : 16mn 4s
Overall bit rate mode : Variable
Overall bit rate : 8 908 Kbps
Writing library : encoded by TMPGEnc (ver. 2.59.47.155)
Video
ID : 224 (0xE0)
Format : MPEG Video
Format version : Version 2
Format profile : Main@Main
Format settings, BVOP : Yes
Format settings, Matrix : Custom
Duration : 16mn 4s
Bit rate mode : Variable
Bit rate : 8 000 Kbps
Width : 720 pixels
Height : 576 pixels
Display aspect ratio : 4:3
Frame rate : 25.000 fps
Standard : PAL
Color space : YUV
Chroma subsampling : 4:2:0
Bit depth : 8 bits
Scan type : Interlaced
Scan order : Bottom Field First
Compression mode : Lossy
Bits/(Pixel*Frame) : 0.772
Stream size : 915 MiB (89%)
Writing library : TMPGEnc / 2.59.47.155 2.59.47.155
Color primaries : BT.601 PAL
Transfer characteristics : BT.470 System B, BT.470 System G
Matrix coefficients : FCC 73.682
Audio #1
ID : 189 (0xBD)-128 (0x80)
Format : AC-3
Format/Info : Audio Coding 3
Mode extension : CM (complete main)
Format settings, Endianness : Big
Muxing mode : DVD-Video
Duration : 16mn 4s
Bit rate mode : Constant
Bit rate : 192 Kbps
Channel(s) : 2 channels
Channel positions : Front: L R
Sampling rate : 48.0 KHz
Bit depth : 16 bits
Compression mode : Lossy
Stream size : 22.1 MiB (2%)
Audio #2
ID : 189 (0xBD)-129 (0x81)
Format : AC-3
Format/Info : Audio Coding 3
Format profile : Dolby Digital
Mode extension : CM (complete main)
Format settings, Endianness : Big
Muxing mode : DVD-Video
Duration : 16mn 4s
Bit rate mode : Constant
Bit rate : 192 Kbps
Channel(s) : 2 channels
Channel positions : Front: L R
Sampling rate : 48.0 KHz
Bit depth : 16 bits
Compression mode : Lossy
Stream size : 22.1 MiB (2%)
Audio #3
ID : 189 (0xBD)-130 (0x82)
Format : AC-3
Format/Info : Audio Coding 3
Mode extension : CM (complete main)
Format settings, Endianness : Big
Muxing mode : DVD-Video
Duration : 16mn 4s
Bit rate mode : Constant
Bit rate : 384 Kbps
Channel(s) : 6 channels
Channel positions : Front: L C R, Side: L R, LFE
Sampling rate : 48.0 KHz
Bit depth : 16 bits
Compression mode : Lossy
Stream size : 44.1 MiB (4%)
Menu

Постер, Обложки и блин

Скриншоты меню


_________________
Показать сообщения:    

Текущее время: Сегодня 11:32

Часовой пояс: GMT



Вы не можете начинать темы
Вы не можете отвечать на сообщения
Вы не можете редактировать свои сообщения
Вы не можете удалять свои сообщения
Вы не можете голосовать в опросах
Вы не можете прикреплять файлы к сообщениям
Вы не можете скачивать файлы
Наши партнеры: интернет магазин Ивановского трикотажа textilla.ru