Ивановский Торрент трекер
Яндекс.Погода
 

[Цитировать]
димитри37

Американская карусель / Roundabout American
Страна: США
Жанр: комедия
Год выпуска: 2012
Продолжительность: 01:22:43
Перевод: Профессиональный (двухголосый закадровый)
Cубтитры: нет
Режиссер: Борис Уэкслер / Boris Wexler
В ролях: Эдуар Жиар, Патрик Зилински, Мариэль де Рокка-Серра, Тори Эдкинс, Хоуи Джонсон, Ром Бархордар, Мэри Джо Фараси, Майкл Джеллман, Крис Бойкин, Венесса Николь Родригес, Мэри Рэдмон, Джефф Гарретсон, Ричард Котовски, Кэтлин Лоулор, Гуннар Льюис, Джеймс Эррико, Рэй Грэй, Джоетт Уотерс, Дженна Хименез, Майк МакНамара, Мелани МакКалло, Фелиция Джун, Марица Кабрера, Кейт Лэйн, Кристал Лейлани, Стив Прингл, Брайан Шоу, Джозеф Луис Кабальеро
Описание: Трое друзей открывают необычную пиццерию: вместе с продуктом они собираются предоставлять богатым клиентам элитных проституток. Проект быстро начинает приносить большие деньги, и вскоре молодые люди получают крупный заказ — на вечеринку к сенатору Чикаго требуется много девушек и пиццы...

Качество видео: SATRip
Формат видео: AVI
Видео: XviD, 720x400, 1392 Кбит/с, 25 fps
Аудио: AC3, 192 Кбит/с, 2 ch, 48 КГц

MediaInfo

Общее
Полное имя : D:\Amerikanskaja.karusel_2012.SATRip.avi
Формат : AVI
Формат/Информация : Audio Video Interleave
Размер файла : 943 Мбайт
Продолжительность : 1 ч. 22 м.
Общий поток : 1594 Кбит/сек
Программа кодирования : VirtualDubMod 1.5.10.2 (build 2540/release)
Библиотека кодирования : VirtualDubMod build 2540/release
Видео
Идентификатор : 0
Формат : MPEG-4 Visual
Профиль формата : Advanced Simple@L5
Параметр BVOP формата : 1
Параметр QPel формата : Нет
Параметр GMC формата : Без точки перехода
Параметр матрицы формата : Default (MPEG)
Идентификатор кодека : XVID
Идентификатор кодека/Подсказка : XviD
Продолжительность : 1 ч. 22 м.
Битрейт : 1392 Кбит/сек
Ширина : 720 пикселей
Высота : 400 пикселей
Соотношение сторон : 16:9
Частота кадров : 25,000 кадров/сек
Цветовое пространство : YUV
Субдискретизация насыщенности : 4:2:0
Битовая глубина : 8 бит
Тип развёртки : Прогрессивная
Метод сжатия : С потерями
Бит/(Пиксели*Кадры) : 0.193
Размер потока : 824 Мбайт (87%)
Библиотека кодирования : XviD 1.2.1 (UTC 2008-12-04)
Аудио
Идентификатор : 1
Формат : AC-3
Формат/Информация : Audio Coding 3
Расширение режима : CM (complete main)
Параметр Endianness формата : Big
Идентификатор кодека : 2000
Продолжительность : 1 ч. 22 м.
Вид битрейта : Постоянный
Битрейт : 192 Кбит/сек
Каналы : 2 канала
Расположение каналов : Front: L R
Частота : 48,0 КГц
Битовая глубина : 16 бит
Метод сжатия : С потерями
Размер потока : 114 Мбайт (12%)
Выравнивание : Разделение по промежуткам
Продолжительность промежутка : 40 мс. (1,00 видеокадр)
Время предзагрузки промежутка : 500 мс.

Скриншот c названием фильма

Скриншоты

-
0 человек читают эту тему: 0 пользователей, 0 скрытых пользователей, 0 гостей

Показать сообщения:    

Текущее время: 23-Авг 18:18

Часовой пояс: UTC - 1


Вы не можете начинать темы
Вы не можете отвечать на сообщения
Вы не можете редактировать свои сообщения
Вы не можете удалять свои сообщения
Вы не можете голосовать в опросах
Вы не можете прикреплять файлы к сообщениям
Вы не можете скачивать файлы

!ВНИМАНИЕ!
Сайт не предоставляет электронные версии произведений, а занимается лишь коллекционированием и каталогизацией ссылок, присылаемых и публикуемых на форуме нашими читателями. Если вы являетесь правообладателем какого-либо представленного материала и не желаете, чтобы ссылка на него находилась в нашем каталоге, свяжитесь с нами, и мы незамедлительно удалим ее. Файлы для обмена на трекере предоставлены пользователями сайта, и администрация не несет ответственности за их содержание. Просьба не заливать файлы, защищенные авторскими правами, а также файлы нелегального содержания!