Ивановский Торрент трекер
Яндекс.Погода
 

[Цитировать]
HUNTER

Альфа и Омега 3
Alpha and Omega 3: The Great Wolf Games
Год выпуска: 2014
Страна: США
Жанр: мультфильм, комедия, приключения, семейный
Продолжительность: 00:45:01
Перевод: Любительский (Двухголосый закадровый) - М. Кенс и О. Брыкина по переводу С. Журавской
русские субтитры: нет-Режиссёр: Ричард Рич : Richard Rich
В главных ролях: Бен Дискин, Dee Dee Greene, Кейт Хиггинс, Mike Jacobs, Mella Leigh, David O. Lodge, Джулия Макс, Рич Мерфи, Крис Смит-Описание: Маленькие и отважные волчата решили устроить соревнования между собой. Они сумели включить в соревнования несколько различных видов спорта, таких как бег, бег с препятствиями и другие виды спорта из программы лёгкой атлетики.
Волчата поделились на команды и начали играть, все знают, что победа достанется тем, кто больше всех старается. Все участники соревнований дружны между собой, никто никого не подставляет и соревнуется честно. Эта интересная картина даёт зрителям только положительные эмоции, она рассчитана на детей дошкольного возраста, им интересно будет посмотреть на то, как дружно и весело соревнуются юные волчата. Все выкладываются на полную мощь, но кто-то готов лучше, а кто-то хуже. Пусть победит сильнейший, под таким девизом проходят эти соревнования.- релиз: -- Над озвучкой работали rtys (М. Кенс) и Оля Брыкина по переводу Саломеи Журавской, за что и огромное спасибо.
- Работа с mkv -Azureus--Качество: WEB-DL 720p
Формат: MKV
Видео кодек: AVC
Аудио кодек: AC3
Видео: 1280x716 , 23,976 fps, ~4 176 kbps avg, 0.190 bit/pixel
Аудио #1: [RUS] 48 kHz, AC3 Dolby Digital, 3/2 (L,C,R,l,r) + LFE ch, ~384 kbps
Аудио #2: [ENG] 48 kHz, AC3 Dolby Digital, 3/2 (L,C,R,l,r) + LFE ch, ~384 kbps
субтитры: английские (SDH)
навигация по главам: 7 глав MediaInfo
Общее
Уникальный идентификатор : 173109716524808532194370283478656904627 (0x823BB7FAE290194F97800D2031D26DB3)
Полное имя : D:\Im\Альфа и Омега 3\Alpha and Omega 3. The Great Wolf Games.2014.WEB-DL 720p.mkv
Формат : Matroska
Версия формата : Version 4 / Version 2
Размер файла : 1,59 Гбайт
Продолжительность : 45 м.
Общий поток : 5044 Кбит/сек
Название фильма : Alpha and Omega 3: The Great Wolf Games.2014.WEB-DL 720p -Azureus-
Дата кодирования : UTC 2014-06-14 17:34:30
Программа кодирования : mkvmerge v7.0.0 ('Where We Going') 32bit built on Jun 9 2014 15:08:34
Библиотека кодирования : libebml v1.3.0 + libmatroska v1.4.1
DURATION : 00:39:58.929000000
NUMBER_OF_FRAMES : 701
NUMBER_OF_BYTES : 19172
_STATISTICS_WRITING_APP : mkvmerge v7.0.0 ('Where We Going') 32bit built on Jun 9 2014 15:08:34
_STATISTICS_WRITING_DATE_UTC : 2014-06-14 17:34:30
_STATISTICS_TAGS : BPS DURATION NUMBER_OF_FRAMES NUMBER_OF_BYTES
Видео
Идентификатор : 1
Формат : AVC
Формат/Информация : Advanced Video Codec
Профиль формата : High@L3.1
Параметр CABAC формата : Нет
Параметр ReFrames формата : 2 кадра
Идентификатор кодека : V_MPEG4/ISO/AVC
Продолжительность : 45 м.
Битрейт : 4176 Кбит/сек
Ширина : 1280 пикселей
Высота : 716 пикселей
Соотношение сторон : 16:9
Режим частоты кадров : Постоянный
Частота кадров : 23,976 кадра/сек
Цветовое пространство : YUV
Субдискретизация насыщенности : 4:2:0
Битовая глубина : 8 бит
Тип развёртки : Прогрессивная
Бит/(Пиксели*Кадры) : 0.190
Размер потока : 1,31 Гбайт (83%)
Язык : English
Default : Да
Forced : Нет
Основные цвета : BT.709
Характеристики трансфера : BT.709
Коэффициенты матрицы : BT.709
Аудио #1
Идентификатор : 2
Формат : AC-3
Формат/Информация : Audio Coding 3
Расширение режима : CM (complete main)
Параметр Endianness формата : Big
Идентификатор кодека : A_AC3
Продолжительность : 45 м.
Вид битрейта : Постоянный
Битрейт : 384 Кбит/сек
Каналы : 6 каналов
Расположение каналов : Front: L C R, Side: L R, LFE
Частота : 48,0 КГц
Битовая глубина : 16 бит
Метод сжатия : С потерями
Размер потока : 124 Мбайт (8%)
Заголовок : DVO
Язык : Russian
Default : Да
Forced : Нет
Аудио #2
Идентификатор : 3
Формат : AC-3
Формат/Информация : Audio Coding 3
Расширение режима : CM (complete main)
Параметр Endianness формата : Big
Идентификатор кодека : A_AC3
Продолжительность : 45 м.
Вид битрейта : Постоянный
Битрейт : 384 Кбит/сек
Каналы : 6 каналов
Расположение каналов : Front: L C R, Side: L R, LFE
Частота : 48,0 КГц
Битовая глубина : 16 бит
Метод сжатия : С потерями
Размер потока : 124 Мбайт (8%)
Заголовок : ENG
Язык : English
Default : Нет
Forced : Нет
Текст
Идентификатор : 4
Формат : UTF-8
Идентификатор кодека : S_TEXT/UTF8
Идентификатор кодека/Информация : UTF-8 Plain Text
Заголовок : Eng Sub - SDH
Язык : English
Default : Нет
Forced : Нет
Меню
00:00:00.000 : en:Chapter 1
00:07:05.000 : en:Chapter 2
00:15:31.000 : en:Chapter 3
00:24:04.000 : en:Chapter 4
00:32:38.000 : en:Chapter 5
00:41:12.000 : en:Chapter 6
00:45:01.990 : en:Chapter 7
____________________________________________
Стою на раздаче до 5 дней.
Просьба скачавшим как можно дольше не покидать раздачу!
ВСЕМ ПРИЯТНОГО ПРОСМОТРА!_________________________________________


Показать сообщения:    

Текущее время: 12-Дек 02:44

Часовой пояс: UTC ± 0


Вы не можете начинать темы
Вы не можете отвечать на сообщения
Вы не можете редактировать свои сообщения
Вы не можете удалять свои сообщения
Вы не можете голосовать в опросах
Вы не можете прикреплять файлы к сообщениям
Вы не можете скачивать файлы

!ВНИМАНИЕ!
Сайт не предоставляет электронные версии произведений, а занимается лишь коллекционированием и каталогизацией ссылок, присылаемых и публикуемых на форуме нашими читателями. Если вы являетесь правообладателем какого-либо представленного материала и не желаете, чтобы ссылка на него находилась в нашем каталоге, свяжитесь с нами, и мы незамедлительно удалим ее. Файлы для обмена на трекере предоставлены пользователями сайта, и администрация не несет ответственности за их содержание. Просьба не заливать файлы, защищенные авторскими правами, а также файлы нелегального содержания!