Важное объявление!
У Нас Все раздачи мультитрекерные, при нуле пиров в релизах, можете смело вставать на закачку!
 
Автор Сообщение

HUNTER

Стаж:
4 года 7 месяцев
Сообщений:
61439

Репутация: 101

[+] [-]
Вне форума [Профиль] [ЛС]


Альфа и Омега 3 - Великие Волчьи Игры
Alpha and Omega 3 - The Great Wolf Games
Страна: США
Жанр: мультфильм, комедия, приключения, семейный
Продолжительность: 00:45:01
Год выпуска: 2014
Перевод: Любительский (двухголосый закадровый)
Русские субтитры: нет
Оригинальная аудиодорожка: Английский
Навигация по главам: Да--Режиссёр: Ричард Рич / Richard Rich--Роли озвучивали: Бен Дискин, Dee Dee Greene, Кейт Хиггинс, Mike Jacobs, Mella Leigh, David O. Lodge, Джулия Макс, Рич Мерфи, Крис Смит...--Роли дублировали: Матвей Кенс и Ольга Брыкина по переводу Саломеи Журавской--Описание: Маленькие и отважные волчата решили устроить соревнования между собой. Все участники соревнований дружны между собой, никто никого не подставляет и соревнуется честно. Эта интересная картина даёт зрителям только положительные эмоции, она рассчитана на детей дошкольного возраста, им интересно будет посмотреть на то, как дружно и весело соревнуются юные волчата. Пусть победит сильнейший, - под таким девизом проходят эти соревнования.--Доп. информация: Kinopoisk | IMDB | Sample | --Качество: WEB-DLRip-AVC
Формат: MKV
Видео: V_MPEG4/ISO/AVC, 1004х562, (16:9), 23.976 fps, 1 747 Kbps, 0.129 bit/pixel.
Аудио 1: 48 kHz, AC3 Dolby Digital, 3/2 (L,C,R,l,r) + LFE ch, ~384 kbps
Аудио 2: 48 kHz, AC3 Dolby Digital, 2/0 (L,R) ch, ~192 kbps
Субтитры: Английские (SDH)

Скриншоты

Подробные технические данные

x264
x264 [info]: frame I:707 Avg QP:15.96 size: 99361
x264 [info]: frame P:17811 Avg QP:19.02 size: 16114
x264 [info]: frame B:46241 Avg QP:21.45 size: 5021
x264 [info]: consecutive B-frames: 3.3% 8.2% 5.8% 68.0% 3.6% 6.2% 0.5% 0.8% 0.1% 0.3% 0.7% 0.6% 0.7% 1.0%
x264 [info]: mb I I16..4: 6.3% 72.7% 21.0%
x264 [info]: mb P I16..4: 0.8% 8.4% 1.7% P16..4: 23.8% 11.9% 11.5% 0.8% 0.3% skip:40.9%
x264 [info]: mb B I16..4: 0.1% 1.3% 0.3% B16..8: 18.9% 7.0% 2.4% direct: 2.5% skip:67.5% L0:34.5% L1:47.2% BI:18.2%
x264 [info]: 8x8 transform intra:75.7% inter:62.3%
x264 [info]: direct mvs spatial:95.7% temporal:4.3%
x264 [info]: coded y,uvDC,uvAC intra: 85.7% 86.4% 64.8% inter: 12.7% 10.4% 2.8%
x264 [info]: i16 v,h,dc,p: 36% 29% 5% 29%
x264 [info]: i8 v,h,dc,ddl,ddr,vr,hd,vl,hu: 12% 17% 5% 7% 10% 10% 13% 10% 15%
x264 [info]: i4 v,h,dc,ddl,ddr,vr,hd,vl,hu: 20% 12% 4% 6% 13% 11% 14% 8% 13%
x264 [info]: i8c dc,h,v,p: 35% 32% 17% 16%
x264 [info]: Weighted P-Frames: Y:1.5% UV:1.2%
x264 [info]: ref P L0: 62.1% 12.1% 10.4% 4.9% 3.3% 2.5% 1.9% 1.1% 0.9% 0.7% 0.1% 0.0%
x264 [info]: ref B L0: 82.3% 8.9% 3.8% 1.8% 1.2% 0.9% 0.7% 0.3% 0.2%
x264 [info]: ref B L1: 96.3% 3.7%
x264 [info]: kb/s:1745.80
General
Unique ID : 245429756947758270031451682200119827471 (0xB8A40D43BE6362BABA80A3C3615E5C0F)
Complete name : Alpha and Omega 3 - The Great Wolf Games.mkv
Format : Matroska
Format version : Version 4 / Version 2
File size : 749 MiB
Duration : 45mn 0s
Overall bit rate : 2 326 Kbps
Movie name : Альфа и Омега 3 - Великие Волчьи Игры
Encoded date : UTC 2014-07-27 05:26:57
Writing application : mkvmerge v6.9.1 ('Blue Panther') 64bit built on Apr 18 2014 18:23:38
Writing library : libebml v1.3.0 + libmatroska v1.4.1
Attachment : Yes
Video
ID : 1
Format : AVC
Format/Info : Advanced Video Codec
Format profile : High@L4.0
Format settings, CABAC : Yes
Format settings, ReFrames : 10 frames
Codec ID : V_MPEG4/ISO/AVC
Duration : 45mn 0s
Bit rate : 1 747 Kbps
Width : 1 004 pixels
Height : 562 pixels
Display aspect ratio : 16:9
Frame rate mode : Constant
Frame rate : 23.976 fps
Color space : YUV
Chroma subsampling : 4:2:0
Bit depth : 8 bits
Scan type : Progressive
Bits/(Pixel*Frame) : 0.129
Stream size : 549 MiB (73%)
Title : By optik.1557
Writing library : x264 core 133 r2334 a3ac64b
Encoding settings : cabac=1 / ref=10 / deblock=1:-2:-1 / analyse=0x3:0x133 / me=umh / subme=10 / psy=1 / psy_rd=1.05:0.03 / mixed_ref=1 / me_range=42 / chroma_me=1 / trellis=2 / 8x8dct=1 / cqm=0 / deadzone=21,11 / fast_pskip=0 / chroma_qp_offset=-3 / threads=6 / lookahead_threads=1 / sliced_threads=0 / nr=0 / decimate=1 / interlaced=0 / bluray_compat=0 / constrained_intra=0 / bframes=13 / b_pyramid=2 / b_adapt=2 / b_bias=0 / direct=3 / weightb=1 / open_gop=0 / weightp=2 / keyint=250 / keyint_min=23 / scenecut=40 / intra_refresh=0 / rc_lookahead=60 / rc=2pass / mbtree=0 / bitrate=1747 / ratetol=1.0 / qcomp=0.60 / qpmin=0 / qpmax=69 / qpstep=4 / cplxblur=20.0 / qblur=0.5 / vbv_maxrate=20000 / vbv_bufsize=25000 / nal_hrd=none / ip_ratio=1.40 / pb_ratio=1.30 / aq=2:0.90 / zones=59267,64759,q=30
Language : English
Default : Yes
Forced : No
Color primaries : BT.709
Transfer characteristics : BT.709
Matrix coefficients : BT.709
Audio #1
ID : 2
Format : AC-3
Format/Info : Audio Coding 3
Mode extension : CM (complete main)
Format settings, Endianness : Big
Codec ID : A_AC3
Duration : 45mn 0s
Bit rate mode : Constant
Bit rate : 384 Kbps
Channel(s) : 6 channels
Channel positions : Front: L C R, Side: L R, LFE
Sampling rate : 48.0 KHz
Bit depth : 16 bits
Compression mode : Lossy
Stream size : 124 MiB (17%)
Title : Двухголосый закадровый
Language : Russian
Default : Yes
Forced : No
Audio #2
ID : 3
Format : AC-3
Format/Info : Audio Coding 3
Mode extension : CM (complete main)
Format settings, Endianness : Big
Codec ID : A_AC3
Duration : 45mn 0s
Bit rate mode : Constant
Bit rate : 192 Kbps
Channel(s) : 2 channels
Channel positions : Front: L R
Sampling rate : 48.0 KHz
Bit depth : 16 bits
Compression mode : Lossy
Stream size : 61.8 MiB (8%)
Language : English
Default : No
Forced : No
Text
ID : 4
Format : UTF-8
Codec ID : S_TEXT/UTF8
Codec ID/Info : UTF-8 Plain Text
Title : SDH
Language : English
Default : No
Forced : No
Menu
00:00:00.000 : en:Chapter 1
00:07:05.000 : en:Chapter 2
00:15:31.000 : en:Chapter 3
00:24:04.000 : en:Chapter 4
00:32:38.000 : en:Chapter 5
00:41:12.000 : en:Chapter 6
00:45:01.990 : en:Chapter 7

_________________
Показать сообщения:    

Текущее время: Сегодня 09:43

Часовой пояс: GMT



Вы не можете начинать темы
Вы не можете отвечать на сообщения
Вы не можете редактировать свои сообщения
Вы не можете удалять свои сообщения
Вы не можете голосовать в опросах
Вы не можете прикреплять файлы к сообщениям
Вы не можете скачивать файлы
Наши партнеры: интернет магазин Ивановского трикотажа textilla.ru