Важное объявление!
У Нас Все раздачи мультитрекерные, при нуле пиров в релизах, можете смело вставать на закачку!
 
Автор Сообщение

HUNTER

Стаж:
4 года 5 месяцев
Сообщений:
60886

Репутация: 101

[+] [-]
Вне форума [Профиль] [ЛС]

Альфа и Омега 3 - Великие Волчьи Игры
Alpha and Omega 3 - The Great Wolf Games
Год выпуска: 2014
Страна: США
Жанр: мультфильм, комедия, приключения, семейный
Продолжительность: 00:45:01
Перевод: Любительский (Двухголосый закадровый) - М. Кенс и О. Брыкина по переводу С. Журавской
Русские субтитры: нет-Режиссёр: Ричард Рич / Richard Rich
В главных ролях: Бен Дискин, Dee Dee Greene, Кейт Хиггинс, Mike Jacobs, Mella Leigh, David O. Lodge, Джулия Макс, Рич Мерфи, Крис Смит-Описание: Маленькие и отважные волчата решили устроить соревнования между собой. Все участники соревнований дружны между собой, никто никого не подставляет и соревнуется честно. Эта интересная картина даёт зрителям только положительные эмоции, она рассчитана на детей дошкольного возраста, им интересно будет посмотреть на то, как дружно и весело соревнуются юные волчата. Пусть победит сильнейший, - под таким девизом проходят эти соревнования.- | Семпл | Совместный релиз: и --Над озвучкой работали rtys (М. Кенс) и Оля Брыкина по переводу Саломеи Журавской, за что им огромное спасибо.-Качество: WEB-DLRip [Исходник: WEB-DL 1080p]
Формат: AVI
Видео: 720x400 (1.80:1), 23.976 fps, XviD build 65 ~1518 kbps avg, 0.22 bit/pixel
Аудио #1: [RUS] 48 kHz, AC3 Dolby Digital, 3/2 (L,C,R,l,r) + LFE ch, ~384 kbps
Аудио #2: [ENG] 48 kHz, AC3 Dolby Digital, 3/2 (L,C,R,l,r) + LFE ch, ~384 kbps
Субтитры: Английские (SDH)

СкриншотыMediaInfo
GeneralComplete name : Alpha.and.Omega.3_2014_WEB-DLRip_Olu6ka.aviFormat : AVIFormat/Info : Audio Video InterleaveFile size : 741 MiBDuration : 45mn 0sOverall bit rate : 2 302 KbpsWriting application : VirtualDubModRus 1.5.10.2 (build 2542/release)Writing library : VirtualDubMod build 2542/release
VideoID : 0Format : MPEG-4 VisualFormat profile : Advanced Simple@L5Format settings, BVOP : 1Format settings, QPel : NoFormat settings, GMC : No warppointsFormat settings, Matrix : CustomCodec ID : XVIDCodec ID/Hint : XviDDuration : 45mn 0sBit rate : 1 520 KbpsWidth : 720 pixelsHeight : 400 pixelsDisplay aspect ratio : 16:9Frame rate : 23.976 fpsColor space : YUVChroma subsampling : 4:2:0Bit depth : 8 bitsScan type : ProgressiveCompression mode : LossyBits/(Pixel*Frame) : 0.220Stream size : 489 MiB (66%)Writing library : XviD 65
Audio #1ID : 1Format : AC-3Format/Info : Audio Coding 3Mode extension : CM (complete main)Format settings, Endianness : BigCodec ID : 2000Duration : 45mn 0sBit rate mode : ConstantBit rate : 384 KbpsChannel count : 6 channelsChannel positions : Front: L C R, Side: L R, LFESampling rate : 48.0 KHzBit depth : 16 bitsCompression mode : LossyStream size : 124 MiB (17%)Alignment : Split accross interleavesInterleave, duration : 42 ms (1.00 video frame)Interleave, preload duration : 500 ms
Audio #2ID : 2Format : AC-3Format/Info : Audio Coding 3Mode extension : CM (complete main)Format settings, Endianness : BigCodec ID : 2000Duration : 45mn 0sBit rate mode : ConstantBit rate : 384 KbpsChannel count : 6 channelsChannel positions : Front: L C R, Side: L R, LFESampling rate : 48.0 KHzBit depth : 16 bitsCompression mode : LossyStream size : 124 MiB (17%)Alignment : Split accross interleavesInterleave, duration : 42 ms (1.00 video frame)Interleave, preload duration : 500 ms
Спасибо -Azureus- за WEB-DL 1080!

_________________
Показать сообщения:    

Текущее время: Сегодня 12:57

Часовой пояс: GMT



Вы не можете начинать темы
Вы не можете отвечать на сообщения
Вы не можете редактировать свои сообщения
Вы не можете удалять свои сообщения
Вы не можете голосовать в опросах
Вы не можете прикреплять файлы к сообщениям
Вы не можете скачивать файлы
Наши партнеры: интернет магазин Ивановского трикотажа textilla.ru