Ивановский Торрент трекер
Яндекс.Погода
 

[Цитировать]
HUNTER

Альфа и Омега 3 Большие Волчьи Игры / Alpha and Omega 3: The Great Wolf Games
Страна: США
Жанр: мультфильм, комедия, приключения.
Продолжительность: 00:42:49
Год выпуска: 2014
Перевод: Профессиональный (дублированный) SDI Media
Русские субтитры: нет
Режиссёр: Ричард Рич : Richard Rich
Описание: Маленькие и отважные волчата решили устроить соревнования между собой. Они сумели включить в соревнования несколько различных видов спорта, таких как бег, бег с препятствиями и другие виды спорта из программы лёгкой атлетики.
Волчата поделились на команды и начали играть, все знают, что победа достанется тем, кто больше всех старается. Все участники соревнований дружны между собой, никто никого не подставляет и соревнуется честно. Эта интересная картина даёт зрителям только положительные эмоции, она рассчитана на детей дошкольного возраста, им интересно будет посмотреть на то, как дружно и весело соревнуются юные волчата. Все выкладываются на полную мощь, но кто-то готов лучше, а кто-то хуже. Пусть победит сильнейший, под таким девизом проходят эти соревнования.
Все раздачи мультфильма.
Качество: DVB
Формат: MPEG
Видео: MPEG Video, 720x576, 25.000 fps, 2068 Kbps
Аудио: MPEG Audio, 48.0 KHz, 2 channels, 128 Kbps - DUB [SDI Media]
Аудио 2: MPEG Audio, 48.0 KHz, 2 channels, 128 Kbps - ENG [Оригинал]
Субтитры: отсутствуют

Подробные технические данные

ОбщееПолное имя : C:\Users\user\Desktop\fhfg_fixed.mpgФормат : MPEG-PSРазмер файла : 726 МбайтПродолжительность : 42 м.Режим общего битрейта : ПеременныйОбщий поток : 2371 Кбит/сек
ВидеоИдентификатор : 224 (0xE0)Формат : MPEG VideoВерсия формата : Version 2Профиль формата : Main@MainПараметр BVOP формата : ДаПараметр матрицы формата : ВыборочнаяПараметр GOP формата : M=3, N=15Продолжительность : 42 м.Вид битрейта : ПеременныйБитрейт : 2068 Кбит/секМаксимальный битрейт : 9500 Кбит/секШирина : 720 пикселейВысота : 576 пикселейСоотношение сторон : 4:3Частота кадров : 25,000 кадров/секСтандарт вещания : PALЦветовое пространство : YUVСубдискретизация насыщенности : 4:2:0Битовая глубина : 8 битТип развёртки : ЧересстрочнаяПорядок развёртки : Верхнее поле первоеМетод сжатия : С потерямиБит/(Пиксели*Кадры) : 0.199Временной код первого кадра : 00:00:00:00Оригинал временного кода : Group of pictures headerРазмер потока : 633 Мбайт (87%)
Аудио #1Идентификатор : 192 (0xC0)Формат : MPEG AudioВерсия формата : Version 1Профиль формата : Layer 2Продолжительность : 42 м.Вид битрейта : ПостоянныйБитрейт : 128 Кбит/секКаналы : 2 каналаЧастота : 48,0 КГцМетод сжатия : С потерямиРазмер потока : 39,2 Мбайт (5%)
Аудио #2Идентификатор : 193 (0xC1)Формат : MPEG AudioВерсия формата : Version 1Профиль формата : Layer 2Продолжительность : 42 м.Вид битрейта : ПостоянныйБитрейт : 128 Кбит/секКаналы : 2 каналаЧастота : 48,0 КГцМетод сжатия : С потерямиРазмер потока : 39,2 Мбайт (5%)

Скриншоты

Показать сообщения:    

Текущее время: 26-Сен 15:32

Часовой пояс: UTC - 1


Вы не можете начинать темы
Вы не можете отвечать на сообщения
Вы не можете редактировать свои сообщения
Вы не можете удалять свои сообщения
Вы не можете голосовать в опросах
Вы не можете прикреплять файлы к сообщениям
Вы не можете скачивать файлы

!ВНИМАНИЕ!
Сайт не предоставляет электронные версии произведений, а занимается лишь коллекционированием и каталогизацией ссылок, присылаемых и публикуемых на форуме нашими читателями. Если вы являетесь правообладателем какого-либо представленного материала и не желаете, чтобы ссылка на него находилась в нашем каталоге, свяжитесь с нами, и мы незамедлительно удалим ее. Файлы для обмена на трекере предоставлены пользователями сайта, и администрация не несет ответственности за их содержание. Просьба не заливать файлы, защищенные авторскими правами, а также файлы нелегального содержания!