Ивановский Торрент трекер
Яндекс.Погода
 

[Цитировать]
HUNTER

Альфа и Омега: Приключения праздничного воя / Alpha and Omega 2: A Howl-iday Adventure- Страна: США
Жанр: комедия, приключения, семейный
Продолжительность: 00:45:07
Год выпуска: 2013
Перевод: Любительский (многоголосый закадровый) Baibako
Русские субтитры: нет
Режиссёр: Ричард Рич / Richard Rich
Роли озвучивали: Бен Дискин, Кейт Хиггинс, Blackie Rose, Lindsay Torrance, Liza West, Трэйси Пфау, Bill Lader, Meryl Leigh, Шон Жерардо, Chris Smith-ОписаниеКейт и Хамфри и их 3 волчат, готовятся к празднованию их первой совместной зимы, когда их самый маленький детеныш, Рант, таинственным образом исчезает.-Сэмпл

IMDb: 5.40 (409)
Качество: BDRip-AVC ALPHA_OMEGA_2_BLUEBIRD
Формат: MKV
Видео: AVC 1587 Kbps 1024 x 576 (1.778) 23.976 fps
Аудио: AC-3 384 Kbps 6 channels, 48.0 KHz MVO Baibako
Аудио 2: AC-3 384 Kbps 6 channels, 48.0 KHz Eng
Субтитры: Eng SRT

MI | Log

Log
x264 [info]: frame I:651 Avg QP:14.65 size: 94311
x264 [info]: frame P:16330 Avg QP:17.04 size: 15844
x264 [info]: frame B:47934 Avg QP:18.76 size: 4849
x264 [info]: consecutive B-frames: 3.2% 3.2% 18.5% 30.8% 17.0% 19.1% 2.7% 1.6% 0.7% 0.7% 0.6% 0.5% 1.6%
x264 [info]: mb I I16..4: 6.2% 74.6% 19.1%
x264 [info]: mb P I16..4: 0.3% 7.5% 1.2% P16..4: 17.1% 17.0% 9.2% 2.1% 0.3% skip:45.3%
x264 [info]: mb B I16..4: 0.1% 1.0% 0.1% B16..8: 16.2% 10.7% 2.5% direct: 2.4% skip:66.9% L0:38.2% L1:46.9% BI:14.9%
x264 [info]: 8x8 transform intra:81.3% inter:51.4%
x264 [info]: coded y,uvDC,uvAC intra: 89.5% 80.5% 59.7% inter: 11.0% 6.5% 2.6%
x264 [info]: i16 v,h,dc,p: 30% 13% 9% 48%
x264 [info]: i8 v,h,dc,ddl,ddr,vr,hd,vl,hu: 9% 11% 7% 9% 11% 11% 13% 13% 17%
x264 [info]: i4 v,h,dc,ddl,ddr,vr,hd,vl,hu: 8% 9% 6% 8% 16% 14% 15% 11% 14%
x264 [info]: i8c dc,h,v,p: 39% 28% 16% 16%
x264 [info]: Weighted P-Frames: Y:1.5% UV:1.3%
x264 [info]: ref P L0: 57.6% 10.0% 12.2% 4.7% 3.9% 3.1% 2.3% 1.4% 1.2% 1.2% 1.0% 1.2% 0.2% 0.0%
x264 [info]: ref B L0: 82.5% 7.1% 3.6% 1.7% 1.4% 1.1% 0.9% 0.6% 0.5% 0.4% 0.3%
x264 [info]: ref B L1: 94.7% 5.3%
x264 [info]: kb/s:1632.76
x264 [total]: encoded 64915 frames, 13.65 fps, 1632.76 kb/s, duration 1:19:13.93
Format                                   : MatroskaFormat version                           : Version 4 / Version 2File size                                : 776 MiBDuration                                 : 45mn 7sOverall bit rate                         : 2 403 KbpsEncoded date                             : UTC 2014-11-30 12:21:50Writing application                      : mkvmerge v6.7.0 ('Back to the Ground') 32bit built on Jan  8 2014 15:03:17Writing library                          : libebml v1.3.0 + libmatroska v1.4.1
VideoID : 1Format : AVCFormat/Info : Advanced Video CodecFormat profile : High@L4.1Format settings, CABAC : YesFormat settings, ReFrames : 12 framesCodec ID : V_MPEG4/ISO/AVCDuration : 45mn 7sBit rate : 1 587 KbpsWidth : 1 024 pixelsHeight : 576 pixelsDisplay aspect ratio : 16:9Frame rate mode : ConstantFrame rate : 23.976 fpsColor space : YUVChroma subsampling : 4:2:0Bit depth : 8 bitsScan type : ProgressiveBits/(Pixel*Frame) : 0.112Stream size : 512 MiB (66%)Title : Alpha and Omega 2: A Howl-iday Adventure [rutracker.org]Writing library : x264 core 142 r2453kMod ea0ca51Encoding settings : cabac=1 / ref=12 / deblock=1:-2:-2 / analyse=0x3:0x133 / me=umh / subme=11 / psy=1 / fade_compensate=0.00 / psy_rd=1.00:0.05 / mixed_ref=1 / me_range=32 / chroma_me=1 / trellis=2 / 8x8dct=1 / cqm=0 / deadzone=21,11 / fast_pskip=0 / chroma_qp_offset=-3 / threads=12 / lookahead_threads=3 / sliced_threads=0 / nr=0 / decimate=1 / interlaced=0 / bluray_compat=0 / constrained_intra=0 / fgo=0 / bframes=12 / b_pyramid=2 / b_adapt=2 / b_bias=0 / direct=1 / weightb=1 / open_gop=0 / weightp=2 / keyint=250 / keyint_min=23 / scenecut=40 / intra_refresh=0 / rc_lookahead=60 / rc=crf / mbtree=0 / crf=18.7000 / qcomp=0.60 / qpmin=0 / qpmax=69 / qpstep=4 / vbv_maxrate=25000 / vbv_bufsize=50000 / crf_max=0.0 / nal_hrd=none / filler=0 / ip_ratio=1.40 / pb_ratio=1.30 / aq=3:0.90Language : EnglishDefault : YesForced : No
Audio #1ID : 2Format : AC-3Format/Info : Audio Coding 3Mode extension : CM (complete main)Format settings, Endianness : BigCodec ID : A_AC3Duration : 45mn 7sBit rate mode : ConstantBit rate : 384 KbpsChannel(s) : 6 channelsChannel positions : Front: L C R, Side: L R, LFESampling rate : 48.0 KHzBit depth : 16 bitsCompression mode : LossyStream size : 124 MiB (16%)Title : MVO [Baibako]Language : RussianDefault : YesForced : No
Audio #2ID : 3Format : AC-3Format/Info : Audio Coding 3Mode extension : CM (complete main)Format settings, Endianness : BigCodec ID : A_AC3Duration : 45mn 7sBit rate mode : ConstantBit rate : 384 KbpsChannel(s) : 6 channelsChannel positions : Front: L C R, Side: L R, LFESampling rate : 48.0 KHzBit depth : 16 bitsCompression mode : LossyStream size : 124 MiB (16%)Title : OriginalLanguage : EnglishDefault : NoForced : No
TextID : 4Format : UTF-8Codec ID : S_TEXT/UTF8Codec ID/Info : UTF-8 Plain TextLanguage : EnglishDefault : NoForced : No
Menu00:00:00.000 : :Chapter 0100:04:27.809 : :Chapter 0300:07:03.881 : :Chapter 0500:16:12.846 : :Chapter 0700:21:06.932 : :Chapter 0900:26:10.652 : :Chapter 1100:31:26.467 : :Chapter 1300:37:05.932 : :Chapter 1500:45:07.287 : :Chapter 16

Скриншоты | Rip vs Source

Source
Показать сообщения:    

Текущее время: 23-Сен 19:14

Часовой пояс: UTC - 1


Вы не можете начинать темы
Вы не можете отвечать на сообщения
Вы не можете редактировать свои сообщения
Вы не можете удалять свои сообщения
Вы не можете голосовать в опросах
Вы не можете прикреплять файлы к сообщениям
Вы не можете скачивать файлы

!ВНИМАНИЕ!
Сайт не предоставляет электронные версии произведений, а занимается лишь коллекционированием и каталогизацией ссылок, присылаемых и публикуемых на форуме нашими читателями. Если вы являетесь правообладателем какого-либо представленного материала и не желаете, чтобы ссылка на него находилась в нашем каталоге, свяжитесь с нами, и мы незамедлительно удалим ее. Файлы для обмена на трекере предоставлены пользователями сайта, и администрация не несет ответственности за их содержание. Просьба не заливать файлы, защищенные авторскими правами, а также файлы нелегального содержания!