Важное объявление!
У Нас Все раздачи мультитрекерные, при нуле пиров в релизах, можете смело вставать на закачку!
 
Автор Сообщение

HUNTER

Стаж:
4 года 10 месяцев
Сообщений:
65506

Репутация: 101

[+] [-]
Вне форума [Профиль] [ЛС]

Альфа и Омега: Клыкастая братва / Alpha and Omega
Страна: США, Индия
Жанр: мультфильм, приключения, комедия
Продолжительность: 01:27:55
Год выпуска: 2010
Перевод: Профессиональный (дублированный) - Пифагор
Роли дублировали: Сергей Лазарев, Валерия Кудрявцева, Игорь Старосельцев, Василий Бочкарев, Александр Клюквин, Никита Прозоровский, Елена Соловьева, Лина Иванова, Александр Гаврилин, Иван Жарков, Диомид Виноградов
Режиссёр: Энтони Белл, Бен Глюк / Anthony Bell, Ben Gluck
Описание: Омега - волк, далёкий от высших кругов. Он мечтает познакомиться с самой популярной волчицей в стае - Альфой. И вот судьба подбрасывает ему неплохой шанс - работники заповедника отправляют их в Айдахо. Волку и волчице придётся сплотиться, для того, чтобы вернуться на свою родину...
Доп. информация:

Формат: AVI
Качество: HDRip
Видео кодек: XviD
Аудио кодек: MP3
Видео: XviD, 624x352, 23.976fps, 1047Kbps
Аудио: MPEG Layer 3, 2ch, 48000Hz, 128kbps

MediaInfo

General
Complete name : Alfa.I.Omega.1.2010.D.HDRip.700.avi
Format : AVI
Format/Info : Audio Video Interleave
File size : 745 MiB
Duration : 1h 27mn
Overall bit rate : 1 184 Kbps
Writing application : VirtualDubMod 1.5.10.3 | www.virtualdub-fr.org || (build 2550/release)
Writing library : VirtualDubMod build 2550/release
Video
ID : 0
Format : MPEG-4 Visual
Format profile : Advanced Simple@L5
Format settings, BVOP : 1
Format settings, QPel : No
Format settings, GMC : No warppoints
Format settings, Matrix : Custom
Codec ID : XVID
Codec ID/Hint : XviD
Duration : 1h 27mn
Bit rate : 1 047 Kbps
Width : 624 pixels
Height : 352 pixels
Display aspect ratio : 16:9
Frame rate : 23.976 fps
Color space : YUV
Chroma subsampling : 4:2:0
Bit depth : 8 bits
Scan type : Progressive
Compression mode : Lossy
Bits/(Pixel*Frame) : 0.199
Stream size : 658 MiB (88%)
Writing library : XviD 63
Audio
ID : 1
Format : MPEG Audio
Format version : Version 1
Format profile : Layer 3
Codec ID : 55
Codec ID/Hint : MP3
Duration : 1h 27mn
Bit rate mode : Constant
Bit rate : 128 Kbps
Channel(s) : 2 channels
Sampling rate : 48.0 KHz
Compression mode : Lossy
Stream size : 80.5 MiB (11%)
Alignment : Aligned on interleaves
Interleave, duration : 42 ms (1.00 video frame)
Interleave, preload duration : 504 ms
Writing library : LAME3.98r
Encoding settings : -m s -V 4 -q 2 -lowpass 17 -b 128

Скриншоты


_________________
Показать сообщения:    

Текущее время: Сегодня 17:46

Часовой пояс: GMT



Вы не можете начинать темы
Вы не можете отвечать на сообщения
Вы не можете редактировать свои сообщения
Вы не можете удалять свои сообщения
Вы не можете голосовать в опросах
Вы не можете прикреплять файлы к сообщениям
Вы не можете скачивать файлы