Важное объявление!
У Нас Все раздачи мультитрекерные, при нуле пиров в релизах, можете смело вставать на закачку!
 
Автор Сообщение

HUNTER

Стаж:
4 года 8 месяцев
Сообщений:
62116

Репутация: 101

[+] [-]
Вне форума [Профиль] [ЛС]


Альпы 3D: Снежные ландшафты

Alps 3D - Paradise of Europe

-
-
  • Год выпуска: 2013
  • Страна: Германия (Los Banditos Films)
  • Жанр: Документальный
  • Продолжительность: 01:04:35
  • Перевод: Профессиональный Дублированный (Лицензия)
  • Субтитры: Русские (вшитые)
  • Режиссер: Аттила Тенки-
  • Описание: Альпы - самые высокие горы в Европе. И самые популярные. Миллионы туристов ежегодно посещают альпийские курорты, чтобы насладиться великолепием живописных пейзажей. Документальный фильм в формате 3D позволит вам оказаться в этих удивительных по своей красоте местах и понять, что лучше гор могут быть только горы.-
  • Качество: BDRip 1080p
  • Формат 3D: Half SideBySide / Горизонтальная стереопара
  • Порядок ракурсов:: Левый ракурс первый
  • Видео кодек: x264
  • Аудио кодек: AC3, DTS
  • Видео: AVC, 1 920x1 080 (16:9), 23.976 кадр/сек, 17.0 Мбит/с
  • Аудио#1: Русский, 48 kHz, AC3 Dolby Digital, 3/2 (L,C,R,l,r) + LFE ch, 384 kbps avg
  • Аудио#2: Русский, 48 kHz, DTS, 3/2 (L,C,R,l,r) + LFE ch, 1510 Кбит/с
  • Аудио#3: Английский, 48 kHz, DTS, 3/2 (L,C,R,l,r) + LFE ch, 1510 Кбит/с-

    MediaInfo

    General
    Unique ID : 234062937588793175078048578291948183667 (0xB016E1CD33230669BA6FA2200435E073)
    Complete name : I:\Видео (общее)\Документальные фильмы и передачи\3D\Альпы 3D.2013.1080p.Half-SBS.marcury.mkv
    Format : Matroska
    Format version : Version 2
    File size : 9.39 GiB
    Duration : 1h 4mn
    Overall bit rate : 20.8 Mbps
    Movie name : Release for marcury
    Encoded date : UTC 2013-09-13 09:58:49
    Writing application : mkvmerge v4.0.0 ('The Stars were mine') сборка от Jun 6 2010 16:18:42
    Writing library : libebml v1.0.0 + libmatroska v1.0.0
    Video
    ID : 1
    Format : AVC
    Format/Info : Advanced Video Codec
    Format profile : [url=mailto:High@L4.1]High@L4.1[/url]
    MultiView_Count : 2
    MultiView_Layout : Right Eye
    Format settings, CABAC : Yes
    Format settings, ReFrames : 4 frames
    Codec ID : V_MPEG4/ISO/AVC
    Duration : 1h 4mn
    Bit rate : 17.0 Mbps
    Width : 1 920 pixels
    Height : 1 080 pixels
    Display aspect ratio : 16:9
    Frame rate mode : Constant
    Frame rate : 23.976 fps
    Color space : YUV
    Chroma subsampling : 4:2:0
    Bit depth : 8 bits
    Scan type : Progressive
    Bits/(Pixel*Frame) : 0.342
    Stream size : 7.67 GiB (82%)
    Title : Альпы 3D: Снежные ландшафты
    Writing library : x264 core 130 r2273 b3065e6
    Encoding settings : cabac=1 / ref=4 / deblock=1:0:0 / analyse=0x3:0x113 / me=umh / subme=8 / psy=1 / psy_rd=1.00:0.00 / mixed_ref=1 / me_range=16 / chroma_me=1 / trellis=1 / 8x8dct=1 / cqm=0 / deadzone=21,11 / fast_pskip=1 / chroma_qp_offset=-2 / threads=12 / lookahead_threads=2 / sliced_threads=0 / nr=0 / decimate=1 / interlaced=0 / bluray_compat=0 / constrained_intra=0 / bframes=3 / b_pyramid=2 / b_adapt=2 / b_bias=0 / direct=3 / weightb=1 / open_gop=0 / weightp=2 / keyint=250 / keyint_min=23 / scenecut=40 / intra_refresh=0 / rc_lookahead=50 / rc=crf / mbtree=1 / crf=17.0 / qcomp=0.60 / qpmin=0 / qpmax=69 / qpstep=4 / ip_ratio=1.40 / aq=1:1.00
    Language : English
    Default : No
    Forced : Yes
    Audio #1
    ID : 2
    Format : DTS
    Format/Info : Digital Theater Systems
    Mode : 16
    Format settings, Endianness : Big
    Codec ID : A_DTS
    Duration : 1h 4mn
    Bit rate mode : Constant
    Bit rate : 1 509 Kbps
    Channel(s) : 6 channels
    Channel positions : Front: L C R, Side: L R, LFE
    Sampling rate : 48.0 KHz
    Bit depth : 24 bits
    Compression mode : Lossy
    Stream size : 698 MiB (7%)
    Title : Русский (DTS, 6 ch, 1510 Кбит/с) - ДБ
    Language : Russian
    Default : Yes
    Forced : Yes
    Audio #2
    ID : 3
    Format : AC-3
    Format/Info : Audio Coding 3
    Mode extension : CM (complete main)
    Format settings, Endianness : Big
    Codec ID : A_AC3
    Duration : 1h 4mn
    Bit rate mode : Constant
    Bit rate : 384 Kbps
    Channel(s) : 6 channels
    Channel positions : Front: L C R, Side: L R, LFE
    Sampling rate : 48.0 KHz
    Bit depth : 16 bits
    Compression mode : Lossy
    Stream size : 178 MiB (2%)
    Title : Русский (AC3, 6 ch, 384 Кбит/с) - ДБ
    Language : Russian
    Default : No
    Forced : No
    Audio #3
    ID : 4
    Format : DTS
    Format/Info : Digital Theater Systems
    Mode : 16
    Format settings, Endianness : Big
    Codec ID : A_DTS
    Duration : 1h 4mn
    Bit rate mode : Constant
    Bit rate : 1 509 Kbps
    Channel(s) : 6 channels
    Channel positions : Front: L C R, Side: L R, LFE
    Sampling rate : 48.0 KHz
    Bit depth : 24 bits
    Compression mode : Lossy
    Delay relative to video : 11ms
    Stream size : 698 MiB (7%)
    Title : Английский (DTS, 6 ch, 1510 Кбит/с)
    Language : English
    Default : No
    Forced : No
    Menu
    00:00:00.000 : en:00:00:00.000
    00:08:29.384 : en:00:08:29.384
    00:16:02.962 : en:00:16:02.962
    00:24:16.163 : en:00:24:16.163
    00:32:10.262 : en:00:32:10.262
    00:40:10.867 : en:00:40:10.867
    00:48:15.851 : en:00:48:15.851
    00:56:06.822 : en:00:56:06.822
    -

    Скриншоты


_________________
Показать сообщения:    

Текущее время: Сегодня 15:03

Часовой пояс: GMT



Вы не можете начинать темы
Вы не можете отвечать на сообщения
Вы не можете редактировать свои сообщения
Вы не можете удалять свои сообщения
Вы не можете голосовать в опросах
Вы не можете прикреплять файлы к сообщениям
Вы не можете скачивать файлы
Наши партнеры: интернет магазин Ивановского трикотажа textilla.ru