Ивановский Торрент трекер
Яндекс.Погода
 

[Цитировать]
HUNTER

Альберт / Albert- Страна: Дания
Жанр: мультфильм, боевик, комедия, приключения, семейный
Год выпуска: 2015
Продолжительность: 01:17:52-Перевод: Профессиональный (двухголосый закадровый)-Режиссеры: Карстен Килерих / Karsten Kiilerich- | Релиз: -Описание: Славный город КеллиВиль слишком мал, чтобы вместить худших негодяев в мире. Альберт и Эгон решают покинуть его в поисках лучшего мира.-Семпл: http://sendfile.su/1271586-Тип релиза: DVB (Канал "Киносемья")
Контейнер: TS
Видео: 720x576 (16:9) @ 1048x576, 25.000 fps, AVC, ~1430 Kbps, 0.138 bits/pixel
Аудио: Русский, 48.0 KHz, AC3, 6 ch, 448 Kbps
Cубтитры: нет

MediaInfo

GeneralID : 1 (0x1)Complete name : Albert 2015 Kinosemya DVO.tsFormat : MPEG-TSFile size : 1.08 GiBDuration : 1 h 17 minOverall bit rate mode : VariableOverall bit rate : 1 980 kb/s
VideoID : 219 (0xDB)Menu ID : 1 (0x1)Format : AVCFormat/Info : Advanced Video CodecFormat profile : High@L3Format settings, CABAC : YesFormat settings, ReFrames : 4 framesCodec ID : 27Duration : 1 h 17 minBit rate : 1 430 kb/sWidth : 720 pixelsHeight : 576 pixelsDisplay aspect ratio : 16:9Frame rate : 25.000 FPSStandard : PALColor space : YUVChroma subsampling : 4:2:0Bit depth : 8 bitsScan type : InterlacedScan type, store method : Separated fieldsScan order : Top Field FirstBits/(Pixel*Frame) : 0.138Stream size : 796 MiB (72%)Color range : LimitedColor primaries : BT.601 PALTransfer characteristics : BT.470 System B, BT.470 System GMatrix coefficients : BT.601
AudioID : 419 (0x1A3)Menu ID : 1 (0x1)Format : AC-3Format/Info : Audio Coding 3Mode extension : CM (complete main)Format settings, Endianness : BigCodec ID : 6Duration : 1 h 17 minBit rate mode : ConstantBit rate : 448 kb/sChannel(s) : 6 channelsChannel positions : Front: L C R, Side: L R, LFESampling rate : 48.0 kHzFrame rate : 31.250 FPS (1536 spf)Compression mode : LossyStream size : 250 MiB (23%)Language : Russian

Скриншоты

Показать сообщения:    

Текущее время: 16-Окт 23:00

Часовой пояс: UTC - 1


Вы не можете начинать темы
Вы не можете отвечать на сообщения
Вы не можете редактировать свои сообщения
Вы не можете удалять свои сообщения
Вы не можете голосовать в опросах
Вы не можете прикреплять файлы к сообщениям
Вы не можете скачивать файлы

!ВНИМАНИЕ!
Сайт не предоставляет электронные версии произведений, а занимается лишь коллекционированием и каталогизацией ссылок, присылаемых и публикуемых на форуме нашими читателями. Если вы являетесь правообладателем какого-либо представленного материала и не желаете, чтобы ссылка на него находилась в нашем каталоге, свяжитесь с нами, и мы незамедлительно удалим ее. Файлы для обмена на трекере предоставлены пользователями сайта, и администрация не несет ответственности за их содержание. Просьба не заливать файлы, защищенные авторскими правами, а также файлы нелегального содержания!