Ивановский Торрент трекер
Яндекс.Погода
 

[Цитировать]
HUNTER

-Алхимия жизни-
Год выпуска: 2007
Страна: Россия
Сайт производителя: отсутствует
Тематика: познавательный
Тип материала: обучающее видео-Продолжительность: 08:08:40
Автор: Рами Блект-Язык: Русский
Субтитры: отсутствуют-Описание: Как известно, построение гармоничных отношений, а, следовательно, и счастливой личной жизни - это не только великое искусство, овладеть которым цель каждого гармоничного человека, но и огромный труд, внутренняя работа над собой и ежедневная практика по закреплению полученных навыков. Самое ценное в представленном ниже тренинге - это практичность полученных знаний, то есть то, насколько изменится Ваша жизнь после просмотра этого материала, насколько он поможет реализовать себя как счастливого партнера в гармоничных отношениях с вашим любимым человеком. Огромный опыт консультирования Рами Блекта и проведения аналогичных тренингов позволяет утверждать, что если Вы действительно внимательно просмотрите предложенный ниже материал и "проживете" вместе с участниками тренинга все представленные ситуации, то не только улучшатся Ваши отношения с окружающими Вас людьми, но и Вы, как следствие, станете счастливее-Качество: DVDRip
Формат: AVI
Видео кодек: DivX
Аудио кодек: MP3
Видео: 720x544 (1.32:1), 25 fps, DivX Codec 5.x or 6.x ~1935 kbps avg, 0.20 bit/pixel
Аудио: 48 kHz, MPEG Layer 3, 2 ch, ~192.00 kbps avg-

Содержание

Здесь 4 лекции.
"4 шага на пути к Высшей гармонии"
"Kак найти свое предназначение" семинар в Днепропетровске
"Что нам мешает достичь успеха в деятельности"
"Секреты Гармоничных Взаимоотношений"

MediaInfo

Код: copyText_writeLink('this.parentNode.parentNode.nextSibling.nextSibling'); General
Complete name : D:\обучение 25,12\Новая папка\Alximiya_jizni\alximiya_jizni01.avi
Format : AVI
Format/Info : Audio Video Interleave
File size : 1.70 GiB
Duration : 2h 4mn
Overall bit rate : 1 950 Kbps
Video
ID : 0
Format : MPEG-4 Visual
Format profile : Simple@L1
Format settings, BVOP : No
Format settings, QPel : No
Format settings, GMC : No warppoints
Format settings, Matrix : Default (H.263)
Codec ID : DX50
Codec ID/Hint : DivX 5
Duration : 2h 4mn
Source duration : 2h 4mn
Bit rate : 1 745 Kbps
Width : 720 pixels
Height : 544 pixels
Display aspect ratio : 4:3
Frame rate : 25.000 fps
Color space : YUV
Chroma subsampling : 4:2:0
Bit depth : 8 bits
Scan type : Progressive
Compression mode : Lossy
Bits/(Pixel*Frame) : 0.178
Stream size : 1.52 GiB (89%)
Writing library : Lavc52.0.0
Audio
ID : 1
Format : MPEG Audio
Format version : Version 1
Format profile : Layer 3
Mode : Joint stereo
Mode extension : MS Stereo
Codec ID : 55
Codec ID/Hint : MP3
Duration : 2h 4mn
Bit rate mode : Constant
Bit rate : 192 Kbps
Channel(s) : 2 channels
Sampling rate : 48.0 KHz
Compression mode : Lossy
Stream size : 171 MiB (10%)
Alignment : Split accross interleaves
Interleave, duration : 24 ms (0.60 video frame)
Interleave, preload duration : 94 ms
- -
Показать сообщения:    

Текущее время: 19-Окт 13:33

Часовой пояс: UTC - 1


Вы не можете начинать темы
Вы не можете отвечать на сообщения
Вы не можете редактировать свои сообщения
Вы не можете удалять свои сообщения
Вы не можете голосовать в опросах
Вы не можете прикреплять файлы к сообщениям
Вы не можете скачивать файлы

!ВНИМАНИЕ!
Сайт не предоставляет электронные версии произведений, а занимается лишь коллекционированием и каталогизацией ссылок, присылаемых и публикуемых на форуме нашими читателями. Если вы являетесь правообладателем какого-либо представленного материала и не желаете, чтобы ссылка на него находилась в нашем каталоге, свяжитесь с нами, и мы незамедлительно удалим ее. Файлы для обмена на трекере предоставлены пользователями сайта, и администрация не несет ответственности за их содержание. Просьба не заливать файлы, защищенные авторскими правами, а также файлы нелегального содержания!