Важное объявление!
У Нас Все раздачи мультитрекерные, при нуле пиров в релизах, можете смело вставать на закачку!
 
Автор Сообщение

HUNTER

Стаж:
4 года 6 месяцев
Сообщений:
60994

Репутация: 101

[+] [-]
Вне форума [Профиль] [ЛС]

Аллан Куотермейн и потерянный город золота / Allan Quatermain and the Lost City of Gold
Страна: США
Студия: MGM
Жанр: Приключения
Год выпуска: 1986
Продолжительность: 01:35:31
Перевод: Профессиональный (многоголосый закадровый)
Перевод 2: Профессиональный (многоголосый закадровый) ( ст.ИНИС)
Перевод 3: Авторский (одноголосый закадровый) А.Дольский
Cубтитры: английские
Оригинальная аудиодорожка: английский
Режиссер: Гари Нельсон / Gary Nelson
В ролях: Ричард Чемберлен , Шэрон Стоун , Джеймс Эрл Джонс , Генри Силва , Роберт Доннер , Догми Ларби , Эилин Марсон , Кассандра Петерсон и др.
Описание: Продолжение фильма "Копи царя Соломона".
Герой возвращается в Африку, чтобы разыскать брата, который отправился на поиски загадочного белого племени и пропал без вести. Рядом с бесстрашным солдатом удачи, как и положено в приключенческих лентах, оказывается отважная красавица-авантюристка. Путешественники находят в дебрях Африки таинственный Золотой город, которым правит зловещий верховный жрец Агон. Легионы белых рабов добывают здесь золото...
Доп. информация: пересобран из раздачи уважаемого tiamat77 : http://rutracker.org/forum/viewtopic.php?t=1197202
Добавлена дорога многоголоски с тв канала ПЕРЕЦ, спасибо уважаемому miha2154 за дорогу.
Дорожка подогнана в ВЕГАСЕ. Меню русифицировано в ФОТОШОПЕ.
Использовал : ДЕМУКС, БИСВИТ и БИЛАЙТ, ФОТОШОП, ВЕГАС, МУКСМАН и РИМЕЙК.
В данном релизе на 4 дороги субтитров меньше чем в исходнике ( ограничение Лаба ).
Бонусы: треллер фильма
Меню: есть,русское/статичное
Сэмпл: http://multi-up.com/953801
Тип релиза: DVD5 (Custom)
: DVD-Video
Видео: PAL 16:9 (720x576) VBR Auto Pan&Scan, Auto Letterboxed ~ 5904.63 kbps avg
Аудио 1: английский/AC3, 2/0 (L,R) ch, 192 kbps, Delay 0 mSec
Аудио 2: русский/многоголосый,AC3, 2/0 (L,R) ch, 192 kbps, Delay 0 mSec
Аудио 3: русский/многоголосый ст.ИНИС,AC3, 2/0 (L,R) ch, 192 kbps, Delay 0 mSec
Аудио 4: русский/авторский А.Дольский,AC3, 2/0 (L,R) ch, 192 kbps, Delay 0 mSec

MediaInfo

Title: Alan_i_Zolotoy_gorod_[rutracker.org]
Size: 3.99 Gb ( 4 185 516,00 KBytes ) - DVD-5
Enabled regions: 1, 2, 3, 4, 5, 6, 7, 8
VTS_01 :
Play Length: 01:35:31
Video: PAL 16:9 (720x576) VBR, Auto Pan&Scan, Auto Letterboxed
Audio:
English (Dolby AC3, 2 ch)
Russian (Dolby AC3, 2 ch)
Russian (Dolby AC3, 2 ch)
Russian (Dolby AC3, 2 ch)
Subtitles:
English
Deutsch
Francais
Italiano
Espanol
Nederlands
Svenska
Suomi
VTS_02 :
Play Length: 00:01:09
Video: PAL 16:9 (720x576) VBR, Auto Pan&Scan, Auto Letterboxed
Audio:
English (Dolby AC3, 2 ch)
* Menus Information *
VIDEO_TS Menu
Video:
PAL 16:9 (720x576) VBR
Auto Letterboxed
Audio:
Not specified (Dolby AC3, 6 ch)
English Language Unit :
Title Menu
VTS_01 Menu
Video:
PAL 16:9 (720x576) VBR
Auto Letterboxed
English Language Unit :
Root Menu
VTS_02 Menu
Video:
NTSC 4:3 (720x480) VBR
Auto Pan&Scan, Auto Letterboxed
English Language Unit :
Root Menu
General
Complete name : D:\Alan_i_Zolotoy_gorod_[rutracker.org]\VIDEO_TS\VTS_01_1.VOB
Format : MPEG-PS
File size : 1 024 MiB
Duration : 23mn 42s
Overall bit rate mode : Variable
Overall bit rate : 6 038 Kbps
Video
ID : 224 (0xE0)
Format : MPEG Video
Format version : Version 2
Format profile : Main@Main
Format settings, BVOP : Yes
Format settings, Matrix : Custom
Format settings, GOP : M=3, N=12
Duration : 23mn 42s
Bit rate mode : Variable
Bit rate : 5 150 Kbps
Maximum bit rate : 9 000 Kbps
Width : 720 pixels
Height : 576 pixels
Display aspect ratio : 16:9
Frame rate : 25.000 fps
Standard : PAL
Color space : YUV
Chroma subsampling : 4:2:0
Bit depth : 8 bits
Scan type : Interlaced
Scan order : Top Field First
Compression mode : Lossy
Bits/(Pixel*Frame) : 0.497
Stream size : 873 MiB (85%)
Audio #1
ID : 189 (0xBD)-128 (0x80)
Format : AC-3
Format/Info : Audio Coding 3
Mode extension : CM (complete main)
Muxing mode : DVD-Video
Duration : 23mn 42s
Bit rate mode : Constant
Bit rate : 192 Kbps
Channel(s) : 2 channels
Channel positions : Front: L R
Sampling rate : 48.0 KHz
Bit depth : 16 bits
Compression mode : Lossy
Delay relative to video : -80ms
Stream size : 32.6 MiB (3%)
Audio #2
ID : 189 (0xBD)-129 (0x81)
Format : AC-3
Format/Info : Audio Coding 3
Mode extension : CM (complete main)
Muxing mode : DVD-Video
Duration : 23mn 42s
Bit rate mode : Constant
Bit rate : 192 Kbps
Channel(s) : 2 channels
Channel positions : Front: L R
Sampling rate : 48.0 KHz
Bit depth : 16 bits
Compression mode : Lossy
Delay relative to video : -80ms
Stream size : 32.6 MiB (3%)
Audio #3
ID : 189 (0xBD)-130 (0x82)
Format : AC-3
Format/Info : Audio Coding 3
Mode extension : CM (complete main)
Muxing mode : DVD-Video
Duration : 23mn 42s
Bit rate mode : Constant
Bit rate : 192 Kbps
Channel(s) : 2 channels
Channel positions : Front: L R
Sampling rate : 48.0 KHz
Bit depth : 16 bits
Compression mode : Lossy
Delay relative to video : -80ms
Stream size : 32.6 MiB (3%)
Audio #4
ID : 189 (0xBD)-131 (0x83)
Format : AC-3
Format/Info : Audio Coding 3
Mode extension : CM (complete main)
Muxing mode : DVD-Video
Duration : 23mn 42s
Bit rate mode : Constant
Bit rate : 192 Kbps
Channel(s) : 2 channels
Channel positions : Front: L R
Sampling rate : 48.0 KHz
Bit depth : 16 bits
Compression mode : Lossy
Delay relative to video : -80ms
Stream size : 32.6 MiB (3%)
Menu

Скриншоты меню






Скриншоты






Скриншоты доп. материалов




_________________
Показать сообщения:    

Текущее время: Сегодня 14:09

Часовой пояс: GMT



Вы не можете начинать темы
Вы не можете отвечать на сообщения
Вы не можете редактировать свои сообщения
Вы не можете удалять свои сообщения
Вы не можете голосовать в опросах
Вы не можете прикреплять файлы к сообщениям
Вы не можете скачивать файлы
Наши партнеры: интернет магазин Ивановского трикотажа textilla.ru