Ивановский Торрент трекер
Яндекс.Погода
 

[Цитировать]
HUNTER

Алиса здесь больше не живет / Alice Doesn't Live Here Anymore
КЛАССИКА МИРОВОГО КИНО
Страна: США
Студия: Warner Bros. Pictures
Жанр: драма, мелодрама
Год выпуска: 1974
Продолжительность: 01:52:04
Перевод 1: Авторский (одноголосый закадровый) ГРИГОРИЙ ЛИБЕРГАЛ
Перевод 2: Профессиональный (многоголосый закадровый) TV Россия
Перевод 3: Профессиональный (многоголосый закадровый) TV Культура
Cубтитры: русские, английские
Оригинальная аудиодорожка: английский
Режиссер: Мартин Скорсезе / Martin Scorsese
В ролях: Эллен Берстин /Ellen Burstyn/, Крис Кристофферсон /Kris Kristofferson/, Билли "Грин" Буш /Billy "Green" Bush/, Элфред Латтер /Alfred Lutter/, Дайэн Лэдд /Diane Ladd/, Джоди Фостер /Jodie Foster/, Харви Кайтел /Harvey Keitel/, Лейла Гольдони /Leila Goldoni/, Лэйн Брэдбери /Lane Bradbury/, Вик Тэйбэк /Vic Tayback/
Описание: Молодая женщина после смерти мужа остается с маленьким сыном и без цента денег. Она пытается как-то справиться с ситуацией и найти что-то, ради чего стоило бы жить дальше. Кристофферсон в роли доброго человека, стремящегося завоевать ее любовь. Берстин заслуженно получила "Оскара" за лучшую женскую роль. (Иванов М.)
Альтернативное описание: Скорсезе гений, даже менее именитые фильмы этого великого мастера просто прекрасны. Об этом фильме можно писать очень долго, но я напишу кратко. Скорсезе показал что он способен снять отличное кино в любом жанре еще в 1974 году, в Алисе присутствует и романтика и драма, даже присущая жесткость, а так же отличный умный юмор, который прекрасно вписывается. Это кино о семье, мечте и жизни в целом.
Сказать, что актерские работы прекрасны, это не сказать ничего, они волшебны, начиная от главной героини, заканчивая второстепенными персонажами.
Эллен Берстин сыграла одну из лучших своих ролей, Крис Кристофферсон хоть и появляется только во второй половине фильма, но его персонаж настолько обаятелен, калоритен и нужен этой истории, что создается ощущение, будто он играл главную роль. Дайн Лэдд тоже превосходна. Еще нельзя не отметить мальчика, игравшего сына Элис. Большинство смешных сцен связанно именно с ним, ну и конечно шедевральную Джоди Фостер, которая играет мелкую хулиганку Одри потрясающе.
Цитата:
Сцена, когда она напоила вином сына Элис и диалог, который в это время шел между ними, одна из моих любимых сцен в кино вообще. Это настолько естественно, правдиво, гениально и уморительно, что на мой взгляд, по одной только этой роли Джоди Фостер, её уже можно возвести в список величайших актрис мира.
То, как работает Скорсезе с актерами, так наверно никто и никогда не работал, он открывает в них лучшее, высвобождает тот безмерный потенциал, который может сидеть глубоко внутри.
А концовка фильма вполне способна заставить пустить слезинку. Я пустил. Скорсезе - гений однозначно! (Fammy)
--------------------------------------------------------------------------------
Оператор: Кент Уэйкфорд /Kent Wakeford/
Сценарист: Роберт Гетчелл /Robert Getchell/
Продюсер: Дэвид Сасскинд /David Susskind/, Одри Маaс /Audrey Maas/
Монтажер: Марсия Лукас /Marcia Lucas/
Композитор: Ричард Ла Саль /Richard LaSalle/
Художник: Тоби Рэфелсон /Toby Rafelson/
--------------------------------------------------

Награды

Награды:
Оскар, 1975 год

Победитель (1):
* Лучшая женская роль (Эллен Бёрстин)
Номинации (2):
* Лучшая женская роль второго плана (Дайан Лэдд)
* Лучший оригинальный сценарий
Золотой глобус, 1975 год

Номинации (2):
* Лучшая женская роль (драма) (Эллен Бёрстин)
* Лучшая женская роль второго плана (Дайан Лэдд)
Британская академия, 1976 год

Победитель (4):
* Лучший фильм
* Лучшая женская роль (Эллен Бёрстин)
* Лучшая женская роль второго плана (Дайан Лэдд)
* Лучший сценарий
Номинации (3):
* Лучшая женская роль второго плана (Лилия Гольдони)
* Лучший режиссер (Мартин Скорсезе)
* Лучший новичок (Альфред Люттер III)
Каннский кинофестиваль, 1975 год
Номинации (1):
* Золотая пальмовая ветвь
--------------------------------------------------
КИНОПОИСК. RU
РЕЙТИНГ - 7.270 оценки: 1391
7,4/10 from 12 988 users
--------------------------------------------------
Доп. информация: Видеоряд >>> Alice Doesn't Live Here Anymore 1974 720p WEB-DL AAC 2 0 H 264-HDStar
MVO отсюда >>> DVDRip - спасибо vedigo
Перевод Либергала из личной коллекции
--------------------------------------------------
СЭМПЛ
--------------------------------------------------
Тип релиза: WEB-DL 720p
Контейнер: MKV
Видео: H.264; 1272x720; 23.976 fps; ~ 3 733 Kbps; 0.170 Bits/Pixel
Аудио 1: Russian - 48 kHz, AC3 Dolby Digital, 2/0 (L,R) ch, ~192 kbps - Григорий Либергал
Аудио 2: Russian - 48 kHz, AC3 Dolby Digital, 2/0 (L,R) ch, ~192 kbps - МVO - TV Россия
Аудио 3: Russian - 48 kHz, AC3 Dolby Digital, 2/0 (L,R) ch, ~192 kbps - МVO - TV Культура
Аудио 4: English - 48 kHz, AC3 Dolby Digital, 1/0 (С) ch, ~ 192 kbps - Comment
Аудио 5: English - 48 kHz, AC3 Dolby Digital, 2/0 (L,R) ch, ~192 kbps - Original
Формат субтитров: Все (*UTF-8)

MediaInfo

General
Complete name : F:\EXCLUZIVE=19\АЛИСА ЗДЕСЬ БОЛЬШЕ НЕ ЖИВЕТ=Alice Doesn't Live Here Anymore. 1974\Alice Doesn't Live Here Anymore. 1974\Alice Doesn't Live Here Anymore 1974 720p WEB-DL.mkv
Format : Matroska
File size : 3.75 GiB
Duration : 1h 52mn
Overall bit rate : 4 788 Kbps
Encoded date : UTC 2014-11-06 12:58:23
Writing application : mkvmerge v3.3.0 ('Language') built on Mar 24 2010 14:59:24
Writing library : libebml v0.8.0 + libmatroska v0.9.0
Video
ID : 1
Format : AVC
Format/Info : Advanced Video Codec
Format profile : High@L3.1
Format settings, CABAC : No
Format settings, ReFrames : 2 frames
Format settings, GOP : M=2, N=32
Muxing mode : Container profile=Unknown@3.1
Codec ID : V_MPEG4/ISO/AVC
Duration : 1h 52mn
Bit rate : 3 733 Kbps
Width : 1 272 pixels
Height : 720 pixels
Display aspect ratio : 16:9
Frame rate : 23.976 fps
Color space : YUV
Chroma subsampling : 4:2:0
Bit depth : 8 bits
Scan type : Progressive
Bits/(Pixel*Frame) : 0.170
Stream size : 2.92 GiB (78%)
Title : Alice.Doesnt.Live.Here.Anymore.1974.
Language : English
Color primaries : BT.709-5, BT.1361, IEC 61966-2-4, SMPTE RP177
Transfer characteristics : BT.709-5, BT.1361
Matrix coefficients : BT.709-5, BT.1361, IEC 61966-2-4 709, SMPTE RP177
Audio #1
ID : 2
Format : AC-3
Format/Info : Audio Coding 3
Mode extension : CM (complete main)
Codec ID : A_AC3
Duration : 1h 52mn
Bit rate mode : Constant
Bit rate : 192 Kbps
Channel(s) : 2 channels
Channel positions : Front: L R
Sampling rate : 48.0 KHz
Stream size : 154 MiB (4%)
Title : AVO Либергал @ AC3 2ch. @ 192 kbps
Language : Russian
Audio #2
ID : 3
Format : AC-3
Format/Info : Audio Coding 3
Mode extension : CM (complete main)
Codec ID : A_AC3
Duration : 1h 52mn
Bit rate mode : Constant
Bit rate : 192 Kbps
Channel(s) : 2 channels
Channel positions : Front: L R
Sampling rate : 48.0 KHz
Stream size : 154 MiB (4%)
Title : MVO-TV Россия @ AC3 2ch. @ 192 kbps
Language : Russian
Audio #3
ID : 4
Format : AC-3
Format/Info : Audio Coding 3
Mode extension : CM (complete main)
Codec ID : A_AC3
Duration : 1h 52mn
Bit rate mode : Constant
Bit rate : 192 Kbps
Channel(s) : 2 channels
Channel positions : Front: L R
Sampling rate : 48.0 KHz
Stream size : 154 MiB (4%)
Title : MVO-TV Культура @ AC3 2ch. @ 192 kbps
Language : Russian
Audio #4
ID : 5
Format : AC-3
Format/Info : Audio Coding 3
Mode extension : CM (complete main)
Codec ID : A_AC3
Duration : 1h 52mn
Bit rate mode : Constant
Bit rate : 192 Kbps
Channel(s) : 1 channel
Channel positions : Front: C
Sampling rate : 48.0 KHz
Stream size : 154 MiB (4%)
Title : Commentary @ AC3 1ch. @ 192 kbps
Language : English
Audio #5
ID : 6
Format : AC-3
Format/Info : Audio Coding 3
Mode extension : CM (complete main)
Codec ID : A_AC3
Duration : 1h 52mn
Bit rate mode : Constant
Bit rate : 192 Kbps
Channel(s) : 2 channels
Channel positions : Front: L R
Sampling rate : 48.0 KHz
Stream size : 154 MiB (4%)
Title : Original @ AC3 2ch. @ 192 kbps
Language : English
Text #1
ID : 7
Format : UTF-8
Codec ID : S_TEXT/UTF8
Codec ID/Info : UTF-8 Plain Text
Title : (* UTF-8) - iTunes
Language : Russian
Text #2
ID : 8
Format : UTF-8
Codec ID : S_TEXT/UTF8
Codec ID/Info : UTF-8 Plain Text
Title : (* UTF-8)
Language : English
Menu
00:00:00.000 : en:Credits
00:01:43.000 : en:If they don't like it
00:03:45.000 : en:Lack of respect
00:08:10.000 : en:With and Without
00:12:57.000 : en:Tragedy
00:15:37.000 : en:Where or When
00:18:40.000 : en:Parting gifts
00:21:58.000 : en:On each other's nerves
00:25:01.000 : en:Sexy for Phoenix
00:29:36.000 : en:No singer wanted
00:32:35.000 : en:Scotch and sympathy
00:35:56.000 : en:Audition
00:39:32.000 : en:I've Got a Crush on You
00:42:50.000 : en:Ben Eberhart
00:45:48.000 : en:Noises in the night
00:49:24.000 : en:Rita Eberhart
00:52:29.000 : en:Ben messes around
00:56:19.000 : en:She doesn't get it
00:58:44.000 : en:New job
01:01:48.000 : en:First day: no grabass
01:05:38.000 : en:A wet hellhole
01:08:14.000 : en:The weird capital
01:11:50.000 : en:Where does he get it?
01:15:07.000 : en:A real good time
01:17:37.000 : en:Someone to talk to
01:22:10.000 : en:Drawing close
01:24:37.000 : en:Her show-biz saga
01:28:01.000 : en:Birthday bashing
01:33:47.000 : en:Ripple-rousers
01:37:38.000 : en:Embalmed jailbird
01:39:58.000 : en:Losing it
01:44:46.000 : en:Who's stopping you?
01:49:35.000 : en:End Credits

Скриншоты

, ,
, ,
, ,
Мои раздачи фильмов в Авторском переводе
Показать сообщения:    

Текущее время: 24-Сен 11:24

Часовой пояс: UTC - 1


Вы не можете начинать темы
Вы не можете отвечать на сообщения
Вы не можете редактировать свои сообщения
Вы не можете удалять свои сообщения
Вы не можете голосовать в опросах
Вы не можете прикреплять файлы к сообщениям
Вы не можете скачивать файлы

!ВНИМАНИЕ!
Сайт не предоставляет электронные версии произведений, а занимается лишь коллекционированием и каталогизацией ссылок, присылаемых и публикуемых на форуме нашими читателями. Если вы являетесь правообладателем какого-либо представленного материала и не желаете, чтобы ссылка на него находилась в нашем каталоге, свяжитесь с нами, и мы незамедлительно удалим ее. Файлы для обмена на трекере предоставлены пользователями сайта, и администрация не несет ответственности за их содержание. Просьба не заливать файлы, защищенные авторскими правами, а также файлы нелегального содержания!