Ивановский Торрент трекер
Яндекс.Погода
 

[Цитировать]
HUNTER


Алиса в Стране Чудес
Alice in Wonderland
Страна: США
Жанр: мультфильм, мюзикл, фэнтези, приключения, семейный
Продолжительность: 01:15:16
Год выпуска: 1951
Перевод 1: Профессиональный (дублированный)
Перевод 2: Авторский (одноголосый закадровый) А.Михалев (Поздний перевод)
Оригинальная дорожка: Английский
Русские субтитры: есть
Режиссёр: Клайд Джероними / Clyde Geronimi, Уилфред Джексон / Wilfred Jackson
Роли озвучивали: Катрин Бомонт, Эд Винн, Ричард Хейдн, Стерлинг Холлоуэй, Джерри Колонна, Верна Фелтон, Дж. Пэт О’Мэлли, Билл Томпсон, Хэзер Эйнджел, Джозеф Кернс
Описание: Убежав из дома, Алиса увидела под старой яблоней большого белого кролика, одетого в куртку и жилет. Достав из кармана часы, кролик торопливо скрылся в подозрительно темной норе. Набравшись смелости, Алиса шагнула вслед за ним...и попала в чудесный сказочный мир, где сбываются самые несбыточные фантазии.
Чтобы попасть обратно домой, Алисе придется совершить путешествие через весь этот странный и причудливый мир, в котором ее поджидают совершенно невероятные приключения и совершенно фантастические существа...
Качество: BDRip-AVC | Семпл
Формат: MKV
Видео: AVC x264, 712x540 (1.319), 23.976 fps, 1 621 Kbps, 0.176 bit/pixel
Аудио 1: 48 kHz, AC3, 3/2 (L,C,R,l,r) + LFE ch, ~384 kbps avg Дубляж, R5
Аудио 2: 48 kHz, AC3, 3/2 (L,C,R,l,r) + LFE ch, ~384 kbps avg Одноголосый закадровый, А.Михалев (Поздний перевод)
Аудио 3: 48 kHz, AC3, 3/2 (L,C,R,l,r) + LFE ch, ~384 kbps avg Оригинал
Субтитры: русские, английские

Подробные технические данные

-[Information] [12.01.2015 3:42:01] x264 [info]: frame I:48    Avg QP:14.70  size: 64619
-[Information] [12.01.2015 3:42:01] x264 [info]: frame P:729   Avg QP:20.22  size: 14144
-[Information] [12.01.2015 3:42:01] x264 [info]: frame B:1773  Avg QP:22.88  size:  4595
General
Unique ID : 196228188009422479056513702960428092001 (0x93A02CA05E2CC43CB9D90DB1A5A20A61)
Complete name : E:\Alice.in.Wonderland.1951.bdrip-avc.mkv
Format : Matroska
Format version : Version 4 / Version 2
File size : 1.46 GiB
Duration : 1h 15mn
Overall bit rate : 2 777 Kbps
Movie name : Алиса в стране чудес / Alice in Wonderland (195) egiko'xz bdrip
Encoded date : UTC 2015-01-18 12:52:51
Writing application : mkvmerge v7.5.0 ('Glass Culture') 64bit built on Jan 4 2015 16:48:44
Writing library : libebml v1.3.1 + libmatroska v1.4.2
Attachements : Cover.jpg
DIRECTOR : Clyde Geronimi, Wilfred Jackson
DATE_RELEASED : 1951
COMMENT : «A world of wonders in One Great Picture»
DURATION : 01:14:51.241000000
NUMBER_OF_FRAMES : 950
NUMBER_OF_BYTES : 50613
_STATISTICS_WRITING_APP : mkvmerge v7.5.0 ('Glass Culture') 64bit built on Jan 4 2015 16:48:44
_STATISTICS_WRITING_DATE_UTC : 2015-01-18 12:52:51
_STATISTICS_TAGS : BPS DURATION NUMBER_OF_FRAMES NUMBER_OF_BYTES
Video
ID : 1
Format : AVC
Format/Info : Advanced Video Codec
Format profile : High@L4.1
Format settings, CABAC : Yes
Format settings, ReFrames : 12 frames
Codec ID : V_MPEG4/ISO/AVC
Duration : 1h 15mn
Bit rate : 1 621 Kbps
Width : 712 pixels
Height : 540 pixels
Display aspect ratio : 4:3
Frame rate mode : Constant
Frame rate : 23.976 fps
Color space : YUV
Chroma subsampling : 4:2:0
Bit depth : 8 bits
Scan type : Progressive
Bits/(Pixel*Frame) : 0.176
Stream size : 845 MiB (57%)
Title : Alice in Wonderland (1951)
Writing library : x264 core 144 r2525kMod 40bb568
Encoding settings : cabac=1 / ref=12 / deblock=1:1:1 / analyse=0x3:0x133 / me=umh / subme=10 / psy=1 / fade_compensate=0.00 / psy_rd=0.40:0.00 / mixed_ref=1 / me_range=32 / chroma_me=1 / trellis=2 / 8x8dct=1 / cqm=0 / deadzone=21,11 / fast_pskip=0 / chroma_qp_offset=-2 / threads=6 / lookahead_threads=1 / sliced_threads=0 / nr=0 / decimate=1 / interlaced=0 / bluray_compat=0 / constrained_intra=0 / fgo=0 / bframes=12 / b_pyramid=2 / b_adapt=2 / b_bias=0 / direct=3 / weightb=1 / open_gop=0 / weightp=2 / keyint=240 / keyint_min=23 / scenecut=40 / intra_refresh=0 / rc_lookahead=60 / rc=2pass / mbtree=1 / bitrate=1621 / ratetol=1.0 / qcomp=0.60 / qpmin=0 / qpmax=69 / qpstep=4 / cplxblur=20.0 / qblur=0.5 / vbv_maxrate=62500 / vbv_bufsize=78125 / nal_hrd=none / filler=0 / ip_ratio=1.40 / aq=1:0.60
Language : English
Default : Yes
Forced : No
DURATION : 01:15:16.179000000
NUMBER_OF_FRAMES : 108280
NUMBER_OF_BYTES : 915496720
_STATISTICS_WRITING_APP : mkvmerge v7.5.0 ('Glass Culture') 64bit built on Jan 4 2015 16:48:44
_STATISTICS_WRITING_DATE_UTC : 2015-01-18 12:52:51
_STATISTICS_TAGS : BPS DURATION NUMBER_OF_FRAMES NUMBER_OF_BYTES
Audio #1
ID : 2
Format : AC-3
Format/Info : Audio Coding 3
Mode extension : CM (complete main)
Format settings, Endianness : Big
Codec ID : A_AC3
Duration : 1h 15mn
Bit rate mode : Constant
Bit rate : 384 Kbps
Channel(s) : 6 channels
Channel positions : Front: L C R, Side: L R, LFE
Sampling rate : 48.0 KHz
Bit depth : 16 bits
Compression mode : Lossy
Stream size : 207 MiB (14%)
Title : DUB, R5
Language : Russian
Default : Yes
Forced : No
Audio #2
ID : 3
Format : AC-3
Format/Info : Audio Coding 3
Mode extension : CM (complete main)
Format settings, Endianness : Big
Codec ID : A_AC3
Duration : 1h 15mn
Bit rate mode : Constant
Bit rate : 384 Kbps
Channel(s) : 6 channels
Channel positions : Front: L C R, Side: L R, LFE
Sampling rate : 48.0 KHz
Bit depth : 16 bits
Compression mode : Lossy
Stream size : 207 MiB (14%)
Title : AVO, А.Михалев (Поздний перевод)
Language : Russian
Default : No
Forced : No
Audio #3
ID : 4
Format : AC-3
Format/Info : Audio Coding 3
Mode extension : CM (complete main)
Format settings, Endianness : Big
Codec ID : A_AC3
Duration : 1h 15mn
Bit rate mode : Constant
Bit rate : 384 Kbps
Channel(s) : 6 channels
Channel positions : Front: L C R, Side: L R, LFE
Sampling rate : 48.0 KHz
Bit depth : 16 bits
Compression mode : Lossy
Stream size : 207 MiB (14%)
Title : оРИГИНАЛ
Language : English
Default : No
Forced : No
Text #1
ID : 5
Format : UTF-8
Codec ID : S_TEXT/UTF8
Codec ID/Info : UTF-8 Plain Text
Language : Russian
Default : No
Forced : No
Text #2
ID : 6
Format : UTF-8
Codec ID : S_TEXT/UTF8
Codec ID/Info : UTF-8 Plain Text
Language : English
Default : No
Forced : No
Menu
00:00:00.000 : en:00:00:00.000
00:01:42.102 : en:00:01:42.102
00:02:58.011 : en:00:02:58.011
00:04:48.621 : en:00:04:48.621
00:07:28.739 : en:00:07:28.739
00:08:11.657 : en:00:08:11.657
00:10:33.090 : en:00:10:33.090
00:13:14.710 : en:00:13:14.710
00:15:03.527 : en:00:15:03.527
00:20:53.251 : en:00:20:53.251
00:22:47.074 : en:00:22:47.074
00:26:21.413 : en:00:26:21.413
00:27:16.676 : en:00:27:16.676
00:31:50.074 : en:00:31:50.074
00:36:34.233 : en:00:36:34.233
00:38:30.141 : en:00:38:30.141
00:41:36.660 : en:00:41:36.660
00:47:45.487 : en:00:47:45.487
00:50:00.622 : en:00:50:00.622
00:53:58.568 : en:00:53:58.568
00:56:08.865 : en:00:56:08.865
00:57:18.434 : en:00:57:18.434
00:58:58.910 : en:00:58:58.910
01:00:09.981 : en:01:00:09.981
01:02:35.710 : en:01:02:35.710
01:06:52.049 : en:01:06:52.049
01:11:29.785 : en:01:11:29.785

Скриншоты / Сравнение

BDRip-AVC DVDRip-AVC BDRip



Дополнительные звуковые дорожки отдельно

1) Авторский одноголосый А.Михалева (ранний)
2) Авторский одноголосый А.Михалева (поздний)
3) Профессиональный (многоголосый, закадровый)
4) Профессиональный (двухголосый, закадровый) П.Гланц и Т.Казакова
Смотрите ссылки в этой раздаче.
Показать сообщения:    

Текущее время: 21-Окт 07:41

Часовой пояс: UTC - 1


Вы не можете начинать темы
Вы не можете отвечать на сообщения
Вы не можете редактировать свои сообщения
Вы не можете удалять свои сообщения
Вы не можете голосовать в опросах
Вы не можете прикреплять файлы к сообщениям
Вы не можете скачивать файлы

!ВНИМАНИЕ!
Сайт не предоставляет электронные версии произведений, а занимается лишь коллекционированием и каталогизацией ссылок, присылаемых и публикуемых на форуме нашими читателями. Если вы являетесь правообладателем какого-либо представленного материала и не желаете, чтобы ссылка на него находилась в нашем каталоге, свяжитесь с нами, и мы незамедлительно удалим ее. Файлы для обмена на трекере предоставлены пользователями сайта, и администрация не несет ответственности за их содержание. Просьба не заливать файлы, защищенные авторскими правами, а также файлы нелегального содержания!