Ивановский Торрент трекер
Яндекс.Погода
 

[Цитировать]
HUNTER

Алиби / The Alibi- Год выпуска: 2006
Страна: США, Нидерланды
Жанр: драма, мелодрама, комедия
Продолжительность: 01:30:31
Перевод: Профессиональный (полное дублирование) R5
Оригинальная звуковая дорожка: English
Субтитры: Russian, Enlish-Режиссер: Мэтт Чековски / Matt Checkowski, Курт Маттила / Kurt Mattila
В ролях: Джерри О’Коннелл, Джон Полито, Дебора Кара Ангер, Стив Кугэн, Кен Керман, Айми Гарсиа, Ясмин Делавари, Мэри Пэт Глисон, Ребекка Ромин, Генри Роллинз
О фильме: Рэй Эллиот управляет службой алиби для мужчин и женщин, которые хотят провести некоторое время отдельно от их так называемых любимых. И жизнь Рэя была бы еще лучше, если бы не избалованный сын их самого богатого клиента, который уехал перед свадьбой поразвлечься и, как вы догадываетесь, не с невестой...
Релиз:
Формат: MKV
Видео: 1920x818 at 23.976 fps, x264@L4.1, 2pass, ~13500 kbps avg
Аудио #01: Russian: 48 kHz, DTS, 3/2 (L,C,R,l,r) + LFE ch, ~768.00 kbps avg |Дубляж, R5|
Аудио #02: English: 48 kHz, DTS, 3/2 (L,C,R,l,r) + LFE ch, ~1509.00 kbps avg
Семпл-

Source vs Encode




-

mInfo

Формат : Matroska
Версия формата : Version 4 / Version 2
Размер файла : 9,97 Гбайт
Продолжительность : 1 ч. 30 м.
Общий поток : 15,8 Мбит/сек
Дата кодирования : UTC 2015-01-15 11:13:50
Программа кодирования : mkvmerge v7.5.0 ('Glass Culture') 64bit built on Jan 4 2015 16:48:44
Библиотека кодирования : libebml v1.3.1 + libmatroska v1.4.2
Attachements : cover
Видео
Идентификатор : 1
Формат : AVC
Формат/Информация : Advanced Video Codec
Профиль формата : High@L4.1
Параметр CABAC формата : Да
Параметр ReFrames формата : 5 кадров
Идентификатор кодека : V_MPEG4/ISO/AVC
Продолжительность : 1 ч. 30 м.
Битрейт : 13,5 Мбит/сек
Ширина : 1920 пикселей
Высота : 818 пикселей
Соотношение сторон : 2,35:1
Режим частоты кадров : Постоянный
Частота кадров : 23,976 кадра/сек
Цветовое пространство : YUV
Субдискретизация насыщенности : 4:2:0
Битовая глубина : 8 бит
Тип развёртки : Прогрессивная
Бит/(Пиксели*Кадры) : 0.359
Размер потока : 8,34 Гбайт (84%)
Заголовок : The Alibi (2006) 1080p BDRip
Библиотека кодирования : x264 core 144 r2525 40bb568
Настройки программы : cabac=1 / ref=5 / deblock=1:-3:-3 / analyse=0x3:0x113 / me=umh / subme=11 / psy=1 / psy_rd=1.00:0.00 / mixed_ref=1 / me_range=64 / chroma_me=1 / trellis=2 / 8x8dct=1 / cqm=0 / deadzone=21,11 / fast_pskip=0 / chroma_qp_offset=-2 / threads=6 / lookahead_threads=1 / sliced_threads=0 / nr=0 / decimate=0 / interlaced=0 / bluray_compat=0 / constrained_intra=0 / bframes=16 / b_pyramid=2 / b_adapt=2 / b_bias=0 / direct=3 / weightb=1 / open_gop=0 / weightp=2 / keyint=240 / keyint_min=23 / scenecut=40 / intra_refresh=0 / rc_lookahead=80 / rc=2pass / mbtree=1 / bitrate=13500 / ratetol=1.0 / qcomp=0.60 / qpmin=10 / qpmax=51 / qpstep=4 / cplxblur=20.0 / qblur=0.5 / ip_ratio=1.40 / aq=1:1.00
Язык : English
Default : Да
Forced : Нет
Аудио #1
Идентификатор : 2
Формат : DTS
Формат/Информация : Digital Theater Systems
Режим : 16
Параметр Endianness формата : Big
Идентификатор кодека : A_DTS
Продолжительность : 1 ч. 30 м.
Вид битрейта : Постоянный
Битрейт : 755 Кбит/сек
Каналы : 6 каналов
Расположение каналов : Front: L C R, Side: L R, LFE
Частота : 48,0 КГц
Битовая глубина : 24 бит
Метод сжатия : С потерями
Размер потока : 489 Мбайт (5%)
Заголовок : [DVD R5] Dub - DTS 5.1 @ 768 kbps
Язык : Russian
Default : Да
Forced : Нет
Аудио #2
Идентификатор : 3
Формат : DTS
Формат/Информация : Digital Theater Systems
Режим : 16
Параметр Endianness формата : Big
Идентификатор кодека : A_DTS
Продолжительность : 1 ч. 30 м.
Вид битрейта : Постоянный
Битрейт : 1509 Кбит/сек
Каналы : 6 каналов
Расположение каналов : Front: L C R, Side: L R, LFE
Частота : 48,0 КГц
Битовая глубина : 24 бит
Метод сжатия : С потерями
Размер потока : 977 Мбайт (10%)
Заголовок : DTS 5.1 @ 1536 kbps
Язык : English
Default : Нет
Forced : Нет
Текст #1
Идентификатор : 4
Формат : UTF-8
Идентификатор кодека : S_TEXT/UTF8
Идентификатор кодека/Информация : UTF-8 Plain Text
Заголовок : [SRT/UTF8] Full
Язык : Russian
Default : Нет
Forced : Нет
Текст #2
Идентификатор : 5
Формат : UTF-8
Идентификатор кодека : S_TEXT/UTF8
Идентификатор кодека/Информация : UTF-8 Plain Text
Заголовок : [SRT/UTF8] Full
Язык : English
Default : Нет
Forced : Нет
Меню
00:00:00.000 : :00:00:00.000
00:07:25.695 : :00:07:25.695
00:12:33.294 : :00:12:33.294
00:16:41.792 : :00:16:41.792
00:22:02.279 : :00:22:02.279
00:27:37.572 : :00:27:37.572
00:32:36.537 : :00:32:36.537
00:38:39.317 : :00:38:39.317
00:43:24.518 : :00:43:24.518
00:51:33.215 : :00:51:33.215
00:56:48.780 : :00:56:48.780
01:02:44.635 : :01:02:44.635
01:08:30.356 : :01:08:30.356
01:14:24.501 : :01:14:24.501
01:19:27.846 : :01:19:27.846
01:24:48.666 : :01:24:48.666

-

Log

x264 [info]: frame I:802 Avg QP:17.31 size:277216
x264 [info]: frame P:27554 Avg QP:19.86 size:114274
x264 [info]: frame B:101863 Avg QP:21.68 size: 56876
-
Показать сообщения:    

Текущее время: 21-Окт 13:09

Часовой пояс: UTC - 1


Вы не можете начинать темы
Вы не можете отвечать на сообщения
Вы не можете редактировать свои сообщения
Вы не можете удалять свои сообщения
Вы не можете голосовать в опросах
Вы не можете прикреплять файлы к сообщениям
Вы не можете скачивать файлы

!ВНИМАНИЕ!
Сайт не предоставляет электронные версии произведений, а занимается лишь коллекционированием и каталогизацией ссылок, присылаемых и публикуемых на форуме нашими читателями. Если вы являетесь правообладателем какого-либо представленного материала и не желаете, чтобы ссылка на него находилась в нашем каталоге, свяжитесь с нами, и мы незамедлительно удалим ее. Файлы для обмена на трекере предоставлены пользователями сайта, и администрация не несет ответственности за их содержание. Просьба не заливать файлы, защищенные авторскими правами, а также файлы нелегального содержания!