Важное объявление!
У Нас Все раздачи мультитрекерные, при нуле пиров в релизах, можете смело вставать на закачку!
Статистика раздачи
Размер:     |    Зарегистрирован:     |    Скачан:     |   
Нет
 
     
 
 
Автор Сообщение

HUNTER

Стаж:
5 лет
Сообщений:
68401

Репутация: 101

[+] [-]
Вне форума [Профиль] [ЛС]


Тип раздаваемого материала: Видеоурок
Язык: Русский
Перевод: Не требуется
Информация о видео-материале
Ведущий: Александр Лисичный
Тема: Взаимоотношения
Год выхода: 2013
Жанр: лекции,видео-семинар, семья, взаимоотношения, психология
Описание: Любовь, надежда, доверие, радость и счастье наполнят взаимоотношения лишь в результате глубокой духовной работы над собой. В этом труде нам помогут не только наши друзья, но и наши враги, не только люди добрые и хорошие, но и люди «трудные».
Программа «Я и Ты…» поможет наладить и улучшить ваше взаимодействие с людьми. Это украсит вашу жизнь и наполнит ее смыслом. Также вы научитесь воспринимать трудные отношения иначе: без разрушительных негативных эмоций, без опустошающих сердце обид и без сжигающей душу жажды мести. Она познакомит вас с глубокой практической мудростью Библии, научными фактами и уроками жизни.
Вы поймете, как сохранить любовь и дружбу и как неординарно и здраво преодолевать сложные взаимоотношения. А самое главное – вы изменитесь сами и обретете надежду, потому что надежда есть всегда!
Содержание:
Тема 1. Программа "Я и Ты" - На пути к счастью
Тема 2. Программа "Я и Ты" - Когда не можешь справиться с "врагом": что выбрать?
Тема 3. Программа "Я и Ты" - Почему с трудными людьми так трудно?
Тема 4. Программа "Я и Ты" - Трудная наука побеждать
Тема 5. Программа "Я и Ты" - Когда не можешь справиться с собой: путь к прощению
Тема 6. Программа "Я и Ты" - Трудные люди - лучшие люди!?
Тема 7. Программа "Я и Ты" - Как устоять в любви
Выпущено: радиотелецентр "Голос надежды"
Продолжительность: 10:00:37
Об авторе: Александр Лисичный - кандидат филологических наук, преподаватель Заокской Духовной Академии, консультант по межличностным отношениям
Файл
Формат: MPEG-4
Качество: WebRip
Видео: 315 Кбит/сек, 640х360, 25,000 кадр/сек, AVC
Звук: AAC, 96 Кбит/сек, 44,1 КГц, 2 канала

MediaInfo:

Общее
Полное имя : F:\ЗАГРУЗКИ\Я и Ты - Трудные люди - лучшие люди\1.mp4
Формат : MPEG-4
Профиль формата : Base Media / Version 2
Идентификатор кодека : mp42
Размер файла : 225 Мбайт
Продолжительность : 1 ч. 16 м.
Режим общего битрейта : Переменный
Общий поток : 413 Кбит/сек
Дата кодирования : UTC 2013-02-22 15:24:47
Дата пометки : UTC 2013-02-22 15:24:47
gsst : 0
gstd : 4566435
gssd : BD0419A43MH1362843005854803
gshh : r9---sn-25g7sb7d.c.youtube.com
Видео
Идентификатор : 1
Формат : AVC
Формат/Информация : Advanced Video Codec
Профиль формата : Baseline@L3.0
Параметр CABAC формата : Нет
Параметр ReFrames формата : 1 кадр
Параметр GOP формата : M=1, N=60
Идентификатор кодека : avc1
Идентификатор кодека/Информация : Advanced Video Coding
Продолжительность : 1 ч. 16 м.
Битрейт : 315 Кбит/сек
Максимальный битрейт : 1155 Кбит/сек
Ширина : 640 пикселей
Высота : 360 пикселей
Соотношение сторон : 16:9
Режим частоты кадров : Постоянный
Частота кадров : 25,000 кадров/сек
Цветовое пространство : YUV
Субдискретизация насыщенности : 4:2:0
Битовая глубина : 8 бит
Тип развёртки : Прогрессивная
Бит/(Пиксели*Кадры) : 0.055
Размер потока : 171 Мбайт (76%)
Дата пометки : UTC 2013-02-22 15:25:26
Аудио
Идентификатор : 2
Формат : AAC
Формат/Информация : Advanced Audio Codec
Профиль формата : LC
Идентификатор кодека : 40
Продолжительность : 1 ч. 16 м.
Вид битрейта : Переменный
Битрейт : 96,0 Кбит/сек
Максимальный битрейт : 102 Кбит/сек
Каналы : 2 канала
Расположение каналов : Front: L R
Частота : 44,1 КГц
Метод сжатия : С потерями
Размер потока : 52,3 Мбайт (23%)
Заголовок : IsoMedia File Produced by Google, 5-11-2011
Дата кодирования : UTC 2013-02-22 15:25:09
Дата пометки : UTC 2013-02-22 15:25:26
Общее
Полное имя : F:\ЗАГРУЗКИ\Я и Ты - Трудные люди - лучшие люди\2.mp4
Формат : MPEG-4
Профиль формата : Base Media / Version 2
Идентификатор кодека : mp42
Размер файла : 303 Мбайт
Продолжительность : 1 ч. 37 м.
Режим общего битрейта : Переменный
Общий поток : 435 Кбит/сек
Дата кодирования : UTC 2013-02-17 06:21:27
Дата пометки : UTC 2013-02-17 06:21:27
gsst : 0
gstd : 5841141
gssd : BD075FAE3MH1362842937384204
gshh : r10---sn-5hn7ym7r.c.youtube.com
Видео
Идентификатор : 1
Формат : AVC
Формат/Информация : Advanced Video Codec
Профиль формата : Baseline@L3.0
Параметр CABAC формата : Нет
Параметр ReFrames формата : 1 кадр
Параметр GOP формата : M=1, N=60
Идентификатор кодека : avc1
Идентификатор кодека/Информация : Advanced Video Coding
Продолжительность : 1 ч. 37 м.
Битрейт : 336 Кбит/сек
Максимальный битрейт : 1624 Кбит/сек
Ширина : 640 пикселей
Высота : 360 пикселей
Соотношение сторон : 16:9
Режим частоты кадров : Постоянный
Частота кадров : 25,000 кадров/сек
Цветовое пространство : YUV
Субдискретизация насыщенности : 4:2:0
Битовая глубина : 8 бит
Тип развёртки : Прогрессивная
Бит/(Пиксели*Кадры) : 0.058
Размер потока : 234 Мбайт (77%)
Дата пометки : UTC 2013-02-17 06:22:26
Аудио
Идентификатор : 2
Формат : AAC
Формат/Информация : Advanced Audio Codec
Профиль формата : LC
Идентификатор кодека : 40
Продолжительность : 1 ч. 37 м.
Вид битрейта : Переменный
Битрейт : 96,0 Кбит/сек
Максимальный битрейт : 102 Кбит/сек
Каналы : 2 канала
Расположение каналов : Front: L R
Частота : 44,1 КГц
Метод сжатия : С потерями
Размер потока : 66,8 Мбайт (22%)
Заголовок : IsoMedia File Produced by Google, 5-11-2011
Дата кодирования : UTC 2013-02-17 06:21:59
Дата пометки : UTC 2013-02-17 06:22:26
Общее
Полное имя : F:\ЗАГРУЗКИ\Я и Ты - Трудные люди - лучшие люди\3.mp4
Формат : MPEG-4
Профиль формата : Base Media / Version 2
Идентификатор кодека : mp42
Размер файла : 274 Мбайт
Продолжительность : 1 ч. 33 м.
Режим общего битрейта : Переменный
Общий поток : 410 Кбит/сек
Дата кодирования : UTC 2013-02-23 01:07:59
Дата пометки : UTC 2013-02-23 01:07:59
gsst : 0
gstd : 5614910
gssd : BD075FAC5MH1362843066761347
gshh : r20---sn-5hn7ym7k.c.youtube.com
Видео
Идентификатор : 1
Формат : AVC
Формат/Информация : Advanced Video Codec
Профиль формата : Baseline@L3.0
Параметр CABAC формата : Нет
Параметр ReFrames формата : 1 кадр
Параметр GOP формата : M=1, N=60
Идентификатор кодека : avc1
Идентификатор кодека/Информация : Advanced Video Coding
Продолжительность : 1 ч. 33 м.
Битрейт : 312 Кбит/сек
Максимальный битрейт : 1183 Кбит/сек
Ширина : 640 пикселей
Высота : 360 пикселей
Соотношение сторон : 16:9
Режим частоты кадров : Постоянный
Частота кадров : 25,000 кадров/сек
Цветовое пространство : YUV
Субдискретизация насыщенности : 4:2:0
Битовая глубина : 8 бит
Тип развёртки : Прогрессивная
Бит/(Пиксели*Кадры) : 0.054
Размер потока : 209 Мбайт (76%)
Дата пометки : UTC 2013-02-23 01:10:24
Аудио
Идентификатор : 2
Формат : AAC
Формат/Информация : Advanced Audio Codec
Профиль формата : LC
Идентификатор кодека : 40
Продолжительность : 1 ч. 33 м.
Вид битрейта : Переменный
Битрейт : 96,0 Кбит/сек
Максимальный битрейт : 103 Кбит/сек
Каналы : 2 канала
Расположение каналов : Front: L R
Частота : 44,1 КГц
Метод сжатия : С потерями
Размер потока : 64,3 Мбайт (23%)
Заголовок : IsoMedia File Produced by Google, 5-11-2011
Дата кодирования : UTC 2013-02-23 01:08:58
Дата пометки : UTC 2013-02-23 01:10:24
Общее
Полное имя : F:\ЗАГРУЗКИ\Я и Ты - Трудные люди - лучшие люди\4.mp4
Формат : MPEG-4
Профиль формата : Base Media / Version 2
Идентификатор кодека : mp42
Размер файла : 330 Мбайт
Продолжительность : 1 ч. 52 м.
Режим общего битрейта : Переменный
Общий поток : 410 Кбит/сек
Дата кодирования : UTC 2013-02-23 09:55:42
Дата пометки : UTC 2013-02-23 09:55:42
gsst : 0
gstd : 6739683
gssd : BD075FAC4HH1362843097560506
gshh : r14---sn-5hn7ym7k.c.youtube.com
Видео
Идентификатор : 1
Формат : AVC
Формат/Информация : Advanced Video Codec
Профиль формата : Baseline@L3.0
Параметр CABAC формата : Нет
Параметр ReFrames формата : 1 кадр
Параметр GOP формата : M=1, N=60
Идентификатор кодека : avc1
Идентификатор кодека/Информация : Advanced Video Coding
Продолжительность : 1 ч. 52 м.
Битрейт : 312 Кбит/сек
Максимальный битрейт : 1460 Кбит/сек
Ширина : 640 пикселей
Высота : 360 пикселей
Соотношение сторон : 16:9
Режим частоты кадров : Постоянный
Частота кадров : 25,000 кадров/сек
Цветовое пространство : YUV
Субдискретизация насыщенности : 4:2:0
Битовая глубина : 8 бит
Тип развёртки : Прогрессивная
Бит/(Пиксели*Кадры) : 0.054
Размер потока : 251 Мбайт (76%)
Дата пометки : UTC 2013-02-23 09:56:58
Аудио
Идентификатор : 2
Формат : AAC
Формат/Информация : Advanced Audio Codec
Профиль формата : LC
Идентификатор кодека : 40
Продолжительность : 1 ч. 52 м.
Вид битрейта : Переменный
Битрейт : 96,0 Кбит/сек
Максимальный битрейт : 104 Кбит/сек
Каналы : 2 канала
Расположение каналов : Front: L R
Частота : 44,1 КГц
Метод сжатия : С потерями
Размер потока : 77,1 Мбайт (23%)
Заголовок : IsoMedia File Produced by Google, 5-11-2011
Дата кодирования : UTC 2013-02-23 09:56:23
Дата пометки : UTC 2013-02-23 09:56:58
Общее
Полное имя : F:\ЗАГРУЗКИ\Я и Ты - Трудные люди - лучшие люди\5.mp4
Формат : MPEG-4
Профиль формата : Base Media / Version 2
Идентификатор кодека : mp42
Размер файла : 231 Мбайт
Продолжительность : 1 ч. 24 м.
Режим общего битрейта : Переменный
Общий поток : 382 Кбит/сек
Дата кодирования : UTC 2013-02-23 21:06:57
Дата пометки : UTC 2013-02-23 21:06:57
gsst : 0
gstd : 5072770
gssd : B4A7DDA04HH1362843125268337
gshh : r4---sn-4g57kuee.c.youtube.com
Видео
Идентификатор : 1
Формат : AVC
Формат/Информация : Advanced Video Codec
Профиль формата : Baseline@L3.0
Параметр CABAC формата : Нет
Параметр ReFrames формата : 1 кадр
Параметр GOP формата : M=1, N=60
Идентификатор кодека : avc1
Идентификатор кодека/Информация : Advanced Video Coding
Продолжительность : 1 ч. 24 м.
Битрейт : 284 Кбит/сек
Максимальный битрейт : 1095 Кбит/сек
Ширина : 640 пикселей
Высота : 360 пикселей
Соотношение сторон : 16:9
Режим частоты кадров : Постоянный
Частота кадров : 25,000 кадров/сек
Цветовое пространство : YUV
Субдискретизация насыщенности : 4:2:0
Битовая глубина : 8 бит
Тип развёртки : Прогрессивная
Бит/(Пиксели*Кадры) : 0.049
Размер потока : 172 Мбайт (74%)
Дата пометки : UTC 2013-02-23 21:07:44
Аудио
Идентификатор : 2
Формат : AAC
Формат/Информация : Advanced Audio Codec
Профиль формата : LC
Идентификатор кодека : 40
Продолжительность : 1 ч. 24 м.
Вид битрейта : Переменный
Битрейт : 96,0 Кбит/сек
Максимальный битрейт : 102 Кбит/сек
Каналы : 2 канала
Расположение каналов : Front: L R
Частота : 44,1 КГц
Метод сжатия : С потерями
Размер потока : 58,1 Мбайт (25%)
Заголовок : IsoMedia File Produced by Google, 5-11-2011
Дата кодирования : UTC 2013-02-23 21:07:20
Дата пометки : UTC 2013-02-23 21:07:44
Общее
Полное имя : F:\ЗАГРУЗКИ\Я и Ты - Трудные люди - лучшие люди\6.mp4
Формат : MPEG-4
Профиль формата : Base Media / Version 2
Идентификатор кодека : mp42
Размер файла : 118 Мбайт
Продолжительность : 43 м.
Режим общего битрейта : Переменный
Общий поток : 384 Кбит/сек
Дата кодирования : UTC 2013-02-28 19:54:07
Дата пометки : UTC 2013-02-28 19:54:07
gsst : 0
gstd : 2581895
gssd : BD075E204HH1362843167327682
gshh : r11---sn-4g57kb7e.c.youtube.com
Видео
Идентификатор : 1
Формат : AVC
Формат/Информация : Advanced Video Codec
Профиль формата : Baseline@L3.0
Параметр CABAC формата : Нет
Параметр ReFrames формата : 1 кадр
Параметр GOP формата : M=1, N=60
Идентификатор кодека : avc1
Идентификатор кодека/Информация : Advanced Video Coding
Продолжительность : 43 м.
Битрейт : 286 Кбит/сек
Максимальный битрейт : 1172 Кбит/сек
Ширина : 640 пикселей
Высота : 360 пикселей
Соотношение сторон : 16:9
Режим частоты кадров : Постоянный
Частота кадров : 25,000 кадров/сек
Цветовое пространство : YUV
Субдискретизация насыщенности : 4:2:0
Битовая глубина : 8 бит
Тип развёртки : Прогрессивная
Бит/(Пиксели*Кадры) : 0.050
Размер потока : 87,9 Мбайт (74%)
Дата пометки : UTC 2013-02-28 19:55:32
Аудио
Идентификатор : 2
Формат : AAC
Формат/Информация : Advanced Audio Codec
Профиль формата : LC
Идентификатор кодека : 40
Продолжительность : 43 м.
Вид битрейта : Переменный
Битрейт : 96,0 Кбит/сек
Максимальный битрейт : 103 Кбит/сек
Каналы : 2 канала
Расположение каналов : Front: L R
Частота : 44,1 КГц
Метод сжатия : С потерями
Размер потока : 29,5 Мбайт (25%)
Заголовок : IsoMedia File Produced by Google, 5-11-2011
Дата кодирования : UTC 2013-02-28 19:54:52
Дата пометки : UTC 2013-02-28 19:55:32
Общее
Полное имя : F:\ЗАГРУЗКИ\Я и Ты - Трудные люди - лучшие люди\7.mp4
Формат : MPEG-4
Профиль формата : Base Media / Version 2
Идентификатор кодека : mp42
Размер файла : 249 Мбайт
Продолжительность : 1 ч. 29 м.
Режим общего битрейта : Переменный
Общий поток : 388 Кбит/сек
Дата кодирования : UTC 2013-03-01 20:44:03
Дата пометки : UTC 2013-03-01 20:44:03
gsst : 0
gstd : 5391486
gssd : BD0419B03HH1362843170686069
gshh : r9---sn-5hn7sb76.c.youtube.com
Видео
Идентификатор : 1
Формат : AVC
Формат/Информация : Advanced Video Codec
Профиль формата : Baseline@L3.0
Параметр CABAC формата : Нет
Параметр ReFrames формата : 1 кадр
Параметр GOP формата : M=1, N=60
Идентификатор кодека : avc1
Идентификатор кодека/Информация : Advanced Video Coding
Продолжительность : 1 ч. 29 м.
Битрейт : 289 Кбит/сек
Максимальный битрейт : 1341 Кбит/сек
Ширина : 640 пикселей
Высота : 360 пикселей
Соотношение сторон : 16:9
Режим частоты кадров : Постоянный
Частота кадров : 25,000 кадров/сек
Цветовое пространство : YUV
Субдискретизация насыщенности : 4:2:0
Битовая глубина : 8 бит
Тип развёртки : Прогрессивная
Бит/(Пиксели*Кадры) : 0.050
Размер потока : 186 Мбайт (75%)
Дата пометки : UTC 2013-03-01 20:45:10
Аудио
Идентификатор : 2
Формат : AAC
Формат/Информация : Advanced Audio Codec
Профиль формата : LC
Идентификатор кодека : 40
Продолжительность : 1 ч. 29 м.
Вид битрейта : Переменный
Битрейт : 96,0 Кбит/сек
Максимальный битрейт : 103 Кбит/сек
Каналы : 2 канала
Расположение каналов : Front: L R
Частота : 44,1 КГц
Метод сжатия : С потерями
Размер потока : 61,7 Мбайт (25%)
Заголовок : IsoMedia File Produced by Google, 5-11-2011
Дата кодирования : UTC 2013-03-01 20:44:37
Дата пометки : UTC 2013-03-01 20:45:10

Скриншоты



_________________
Показать сообщения:    

Текущее время: Сегодня 03:57

Часовой пояс: GMT



Вы не можете начинать темы
Вы не можете отвечать на сообщения
Вы не можете редактировать свои сообщения
Вы не можете удалять свои сообщения
Вы не можете голосовать в опросах
Вы не можете прикреплять файлы к сообщениям
Вы не можете скачивать файлы