Ивановский Торрент трекер
Яндекс.Погода
 

[Цитировать]
HUNTER

Аладдин / Aladdin
Страна: США
Жанр: приключения, семейный
Продолжительность: 01:30:25
Год выпуска: 1992
Перевод 1: Профессиональный (дублированный)
Перевод 2: Профессиональный (двухголосый закадровый)
Перевод 3: Авторский (одноголосый закадровый) Александр Марченко
Перевод 4: Авторский (одноголосый закадровый) Алексей Михалёв
Русские субтитры: есть
Режиссёр: Рон Клементс / Ron Clements, Джон Маскер / John Musker
Роли озвучивали: Скотт Венгер, Робин Уильямс, Линда Ларкин, Джонатан Фриман, Фрэнк Уэлкер, Гилберт Готтфрид, Дуглас Сил, Чарльз Адлер, Джек Эйнджел, Кори Бертон...
Описание: В славном граде Аграба живет Аладдин, веселый воришка с золотым сердцем. Живет и не знает, что вскоре его ждет величайшее приключение в жизни. Ведь только с его помощью черный маг Джафар может овладеть невероятным сокровищем — лампой, в которой заключен исполняющий желания могущественный Джинн. И только хитроумие, смекалка и доброта Аладдина и его друзей — обезьянки Абу, принцессы Джасмин и самого Джинна способны помешать Джафару завладеть лампой и захватить власть над миром…
Доп. информация: За оцифровку VHS с переводом Марченко спасибо Fikaloid.
Сэмпл: http://multi-up.com/818022
Качество: HDTVRip Исходник
Формат: MKV
Видео: 1276x720 (16:9), 23.976 fps, AVC, ~2545 Kbps, 0.116 bits/pixel
Аудио 1: Russian, 48.0 KHz, AC3, 6 ch, 384 Kbps - Dub
Аудио 2: Russian, 48.0 KHz, AC3, 6 ch, 448 Kbps - DVO Петр Гланц, Инна Королёва
Аудио 3: Russian, 48.0 KHz, AC3, 1 ch, 96.0 Kbps - AVO Александр Марченко
Аудио 4: Russian, 48.0 KHz, AC3, 6 ch, 384 Kbps - AVO Алексей Михалёв отдельным файлом
Аудио 5: English, 48.0 KHz, AC3, 6 ch, 448 Kbps отдельным файлом
Субтитры: русские, английские

СравнениеLog
...last pass...
x264.exe: --pass 2 --bitrate 2545 --preset medium --level 4.1 --ref 8 --deblock -1:-1 --merange 32 --direct auto --b-adapt 2 --trellis 2 --no-fast-pskip --psy-rd 1.00:0.10 --partitions all --subme 9 --me umh --rc-lookahead 50 --stats "C:\Users\1\Desktop\Aladdin.1992.1080i.WOWOW.DD5.1.MPEG2.HDTracker.log" --sar 1:1 --output "C:\Users\1\Desktop\Aladdin.1992.1080i.WOWOW.DD5.1.MPEG2.HDTracker.mp4" "D:\Temp\0055.avs"
avs [info]: 1276x720p 1:1 @ 24000/1001 fps (cfr)
x264 [info]: using SAR=1/1
x264 [info]: using cpu capabilities: MMX2 SSE2Fast FastShuffle SSEMisalign LZCNT
x264 [info]: profile High, level 4.1
x264 [info]: frame I:1517 Avg QP:15.68 size: 92907
x264 [info]: frame P:40671 Avg QP:18.91 size: 24438
x264 [info]: frame B:87879 Avg QP:21.67 size: 6724
x264 [info]: consecutive B-frames: 5.3% 6.5% 22.1% 66.1%
x264 [info]: mb I I16..4: 24.9% 53.4% 21.6%
x264 [info]: mb P I16..4: 6.4% 5.8% 1.9% P16..4: 39.3% 9.0% 11.9% 0.6% 0.2% skip:24.8%
x264 [info]: mb B I16..4: 0.7% 0.4% 0.2% B16..8: 29.9% 5.0% 1.7% direct: 2.1% skip:60.0% L0:46.4% L1:49.8% BI: 3.9%
x264 [info]: 8x8 transform intra:42.0% inter:47.5%
x264 [info]: direct mvs spatial:92.6% temporal:7.4%
x264 [info]: coded y,uvDC,uvAC intra: 40.6% 69.9% 53.4% inter: 8.6% 17.8% 5.9%
x264 [info]: i16 v,h,dc,p: 66% 15% 8% 11%
x264 [info]: i8 v,h,dc,ddl,ddr,vr,hd,vl,hu: 8% 9% 19% 9% 11% 10% 12% 9% 13%
x264 [info]: i4 v,h,dc,ddl,ddr,vr,hd,vl,hu: 12% 10% 17% 9% 12% 10% 10% 9% 11%
x264 [info]: i8c dc,h,v,p: 46% 26% 18% 11%
x264 [info]: Weighted P-Frames: Y:1.9% UV:1.5%
x264 [info]: ref P L0: 51.3% 4.5% 18.8% 8.1% 5.5% 4.6% 4.0% 2.5% 0.7% 0.0%
x264 [info]: ref B L0: 68.1% 13.3% 8.8% 4.1% 2.8% 1.9% 1.1%
x264 [info]: ref B L1: 90.6% 9.4%
x264 [info]: kb/s:2544.92
Подробные технические данные
GeneralUnique ID : 203168064462613050147784309594557652735 (0x98D8BEF3E75546B78DDDC4F788361EFF)Complete name : C:\Aladdin\Aladdin.mkvFormat : MatroskaFormat version : Version 4 / Version 2File size : 2.19 GiBDuration : 1h 30mnOverall bit rate : 3 475 KbpsEncoded date : UTC 2010-02-22 21:41:31Writing application : mkvmerge v5.9.0 ('On The Loose') built on Dec 9 2012 15:37:01Writing library : libebml v1.3.0 + libmatroska v1.4.0
VideoID : 1Format : AVCFormat/Info : Advanced Video CodecFormat profile : High@L4.1Format settings, CABAC : YesFormat settings, ReFrames : 8 framesCodec ID : V_MPEG4/ISO/AVCDuration : 1h 30mnBit rate : 2 545 KbpsWidth : 1 276 pixelsHeight : 720 pixelsDisplay aspect ratio : 16:9Frame rate mode : ConstantFrame rate : 23.976 fpsColor space : YUVChroma subsampling : 4:2:0Bit depth : 8 bitsScan type : ProgressiveBits/(Pixel*Frame) : 0.116Stream size : 1.56 GiB (71%)Writing library : x264 core 129 r2245 bc13772Encoding settings : cabac=1 / ref=8 / deblock=1:-1:-1 / analyse=0x3:0x133 / me=umh / subme=9 / psy=1 / psy_rd=1.00:0.10 / mixed_ref=1 / me_range=32 / chroma_me=1 / trellis=2 / 8x8dct=1 / cqm=0 / deadzone=21,11 / fast_pskip=0 / chroma_qp_offset=-3 / threads=3 / lookahead_threads=1 / sliced_threads=0 / nr=0 / decimate=1 / interlaced=0 / bluray_compat=0 / constrained_intra=0 / bframes=3 / b_pyramid=2 / b_adapt=2 / b_bias=0 / direct=3 / weightb=1 / open_gop=0 / weightp=2 / keyint=250 / keyint_min=23 / scenecut=40 / intra_refresh=0 / rc_lookahead=50 / rc=2pass / mbtree=1 / bitrate=2545 / ratetol=1.0 / qcomp=0.60 / qpmin=0 / qpmax=69 / qpstep=4 / cplxblur=20.0 / qblur=0.5 / ip_ratio=1.40 / aq=1:1.00Default : YesForced : No
Audio #1ID : 2Format : AC-3Format/Info : Audio Coding 3Mode extension : CM (complete main)Format settings, Endianness : BigCodec ID : A_AC3Duration : 1h 30mnBit rate mode : ConstantBit rate : 384 KbpsChannel(s) : 6 channelsChannel positions : Front: L C R, Side: L R, LFESampling rate : 48.0 KHzBit depth : 16 bitsCompression mode : LossyStream size : 248 MiB (11%)Title : DubLanguage : RussianDefault : YesForced : No
Audio #2ID : 3Format : AC-3Format/Info : Audio Coding 3Mode extension : CM (complete main)Format settings, Endianness : BigCodec ID : A_AC3Duration : 1h 30mnBit rate mode : ConstantBit rate : 448 KbpsChannel(s) : 6 channelsChannel positions : Front: L C R, Side: L R, LFESampling rate : 48.0 KHzBit depth : 16 bitsCompression mode : LossyStream size : 290 MiB (13%)Title : DVO Петр Гланц, Инна КоролёваLanguage : RussianDefault : NoForced : No
Audio #3ID : 4Format : AC-3Format/Info : Audio Coding 3Mode extension : CM (complete main)Format settings, Endianness : BigCodec ID : A_AC3Duration : 1h 30mnBit rate mode : ConstantBit rate : 96.0 KbpsChannel(s) : 1 channelChannel positions : Front: CSampling rate : 48.0 KHzBit depth : 16 bitsCompression mode : LossyStream size : 62.1 MiB (3%)Title : AVO Александр МарченкоLanguage : RussianDefault : NoForced : No
Text #1ID : 5Format : UTF-8Codec ID : S_TEXT/UTF8Codec ID/Info : UTF-8 Plain TextLanguage : RussianDefault : YesForced : No
Text #2ID : 6Format : UTF-8Codec ID : S_TEXT/UTF8Codec ID/Info : UTF-8 Plain TextLanguage : EnglishDefault : NoForced : No
Скриншоты


Показать сообщения:    

Текущее время: 17-Дек 21:45

Часовой пояс: UTC ± 0


Вы не можете начинать темы
Вы не можете отвечать на сообщения
Вы не можете редактировать свои сообщения
Вы не можете удалять свои сообщения
Вы не можете голосовать в опросах
Вы не можете прикреплять файлы к сообщениям
Вы не можете скачивать файлы

!ВНИМАНИЕ!
Сайт не предоставляет электронные версии произведений, а занимается лишь коллекционированием и каталогизацией ссылок, присылаемых и публикуемых на форуме нашими читателями. Если вы являетесь правообладателем какого-либо представленного материала и не желаете, чтобы ссылка на него находилась в нашем каталоге, свяжитесь с нами, и мы незамедлительно удалим ее. Файлы для обмена на трекере предоставлены пользователями сайта, и администрация не несет ответственности за их содержание. Просьба не заливать файлы, защищенные авторскими правами, а также файлы нелегального содержания!