Аладдин / Aladdin (Рон Клементс, Джон Маскер) [1992, мультфильм, фэнтези, приключения, семейный, мюзикл, BDRip 1080p] :: Ивановский Торрент трекер
Важное объявление!
У Нас Все раздачи мультитрекерные, при нуле пиров в релизах, можете смело вставать на закачку!
Статистика раздачи
Размер:     |    Зарегистрирован:     |    Скачан:     |   
Нет
 
     
 
 
Автор Сообщение

HUNTER

Стаж:
4 года 11 месяцев
Сообщений:
66098

Репутация: 101

[+] [-]
Вне форума [Профиль] [ЛС]

Аладдин / Aladdin-Год выпуска: 1992
Страна: США, Walt Disney Pictures
Жанр: мультфильм, фэнтези, приключения, семейный, мюзикл
Продолжительность: 01:30:40
Перевод: Профессиональный (дублированный) / Авторский (одноголосый) Михалев Профессиональный (двухголосый) Гланц и Королева / Авторский (одноголосый) Марченко
Субтитры: Русские, Английские-В ролях: Скотт Вейнгер, Робин Уильямс, Линда Ларкин, Джонатан Фримэн, Фрэнк Уэлкер, Джилберт Готтфрид, Дуглас Сиеле, Брюс Адлер
Режиссёр: Рон Клементс, Джон Маскер-Описание: Студия "Уолт Дисней" приглашает Вас в увлекательное путешествие в волшебный мир "Сказок 1001 ночи". Туда, на загадочный Восток, где в славном граде Аграба живёт Аладдин, весёлый воришка с золотым сердцем. Живёт и не знает, что вскоре его ждет величайшее приключение в жизни. Ведь только с его помощью чёрный маг Джаффар может овладеть невероятным сокровищем — лампой, в которой заключён исполняющий желания могущественный Джинн. И только хитроумие, смекалка и доброта Аладдина и его друзей — обезьянки Абу, принцессы Джасмин и самого Джинна способны помешать Джаффару завладеть лампой и захватить власть над миром...-Качество: BDRip 1080p
Формат: MKV
Видео кодек: AVC
Аудио кодек: AC3
Видео: AVC, 1920x1040, 23,976 fps, 4617 Kbps
Аудио #1: Русский AC3, 48 kHz, 6 ch, 640 kbps Дубляж
Аудио #2: Русский AC3, 48 kHz, 6 ch, 384 kbps AVO Михалев
Аудио #3: Русский AC3, 48 kHz, 6 ch, 448 kbps DVO Гланц и Королева
Аудио #4: Русский AC3, 48 kHz, 2 ch, 192 kbps AVO Марченко
Аудио #5: Английский AC3, 48 kHz, 6 ch, 640 kbps Оригинал-

MI

General
Unique ID : 193746119945619399228745349898747551696 (0x91C225390385D3DDB95444B02FA89FD0)
Complete name : Aladdin.1992.BDRip.1080p.mkv
Format : Matroska
Format version : Version 4 / Version 2
File size : 4.38 GiB
Duration : 1h 30mn
Overall bit rate : 6 910 Kbps
Encoded date : UTC 2013-03-11 08:11:36
Writing application : mkvmerge v6.1.0 ('Old Devil') built on Mar 2 2013 14:32:37
Writing library : libebml v1.3.0 + libmatroska v1.4.0
Video
ID : 1
Format : AVC
Format/Info : Advanced Video Codec
Format profile : [url=mailto:High@L4.1]High@L4.1[/url]
Format settings, CABAC : Yes
Format settings, ReFrames : 4 frames
Codec ID : V_MPEG4/ISO/AVC
Duration : 1h 30mn
Bit rate : 4 617 Kbps
Width : 1 920 pixels
Height : 1 040 pixels
Display aspect ratio : 1.85:1
Frame rate mode : Constant
Frame rate : 23.976 fps
Color space : YUV
Chroma subsampling : 4:2:0
Bit depth : 8 bits
Scan type : Progressive
Bits/(Pixel*Frame) : 0.096
Stream size : 2.83 GiB (65%)
Title : Rip by Dimok
Writing library : x264 core 130 r2273 b3065e6
Encoding settings : cabac=1 / ref=4 / deblock=1:0:0 / analyse=0x3:0x133 / me=umh / subme=11 / psy=1 / psy_rd=1.00:0.10 / mixed_ref=1 / me_range=32 / chroma_me=1 / trellis=2 / 8x8dct=1 / cqm=0 / deadzone=21,11 / fast_pskip=0 / chroma_qp_offset=-1 / threads=12 / lookahead_threads=1 / sliced_threads=0 / slices=1 / nr=0 / decimate=0 / interlaced=0 / bluray_compat=0 / constrained_intra=0 / bframes=3 / b_pyramid=2 / b_adapt=2 / b_bias=0 / direct=3 / weightb=1 / open_gop=0 / weightp=2 / keyint=240 / keyint_min=23 / scenecut=40 / intra_refresh=0 / rc_lookahead=70 / rc=2pass / mbtree=1 / bitrate=4617 / ratetol=1.0 / qcomp=0.62 / qpmin=1 / qpmax=69 / qpstep=4 / cplxblur=20.0 / qblur=0.5 / ip_ratio=1.40 / aq=2:0.80
Language : English
Default : Yes
Forced : No
Audio #1
ID : 2
Format : AC-3
Format/Info : Audio Coding 3
Mode extension : CM (complete main)
Format settings, Endianness : Big
Codec ID : A_AC3
Duration : 1h 30mn
Bit rate mode : Constant
Bit rate : 640 Kbps
Channel(s) : 6 channels
Channel positions : Front: L C R, Side: L R, LFE
Sampling rate : 48.0 KHz
Bit depth : 16 bits
Compression mode : Lossy
Stream size : 415 MiB (9%)
Title : Дубляж
Language : Russian
Default : No
Forced : No
Audio #2
ID : 3
Format : AC-3
Format/Info : Audio Coding 3
Mode extension : CM (complete main)
Format settings, Endianness : Big
Codec ID : A_AC3
Duration : 1h 30mn
Bit rate mode : Constant
Bit rate : 384 Kbps
Channel(s) : 6 channels
Channel positions : Front: L C R, Side: L R, LFE
Sampling rate : 48.0 KHz
Bit depth : 16 bits
Compression mode : Lossy
Delay relative to video : 19s 102ms
Stream size : 249 MiB (6%)
Title : Одноголосый, Михалев
Language : Russian
Default : No
Forced : No
Audio #3
ID : 4
Format : AC-3
Format/Info : Audio Coding 3
Mode extension : CM (complete main)
Format settings, Endianness : Big
Codec ID : A_AC3
Duration : 1h 30mn
Bit rate mode : Constant
Bit rate : 448 Kbps
Channel(s) : 6 channels
Channel positions : Front: L C R, Side: L R, LFE
Sampling rate : 48.0 KHz
Bit depth : 16 bits
Compression mode : Lossy
Delay relative to video : 19s 102ms
Stream size : 291 MiB (6%)
Title : Двуголосый, Гланц и Королева
Language : Russian
Default : No
Forced : No
Audio #4
ID : 5
Format : AC-3
Format/Info : Audio Coding 3
Mode extension : CM (complete main)
Format settings, Endianness : Big
Codec ID : A_AC3
Duration : 1h 30mn
Bit rate mode : Constant
Bit rate : 192 Kbps
Channel(s) : 2 channels
Channel positions : Front: L R
Sampling rate : 48.0 KHz
Bit depth : 16 bits
Compression mode : Lossy
Delay relative to video : 19s 102ms
Stream size : 125 MiB (3%)
Title : Одноголосый, Марченко
Language : Russian
Default : No
Forced : No
Audio #5
ID : 6
Format : AC-3
Format/Info : Audio Coding 3
Mode extension : CM (complete main)
Format settings, Endianness : Big
Codec ID : A_AC3
Duration : 1h 30mn
Bit rate mode : Constant
Bit rate : 640 Kbps
Channel(s) : 6 channels
Channel positions : Front: L C R, Side: L R, LFE
Sampling rate : 48.0 KHz
Bit depth : 16 bits
Compression mode : Lossy
Stream size : 415 MiB (9%)
Title : Original
Language : English
Default : No
Forced : No
Text #1
ID : 7
Format : UTF-8
Codec ID : S_TEXT/UTF8
Codec ID/Info : UTF-8 Plain Text
Title : Русские 1
Language : Russian
Default : Yes
Forced : No
Text #2
ID : 8
Format : UTF-8
Codec ID : S_TEXT/UTF8
Codec ID/Info : UTF-8 Plain Text
Title : Русские 1
Language : Russian
Default : No
Forced : No
Text #3
ID : 9
Format : UTF-8
Codec ID : S_TEXT/UTF8
Codec ID/Info : UTF-8 Plain Text
Title : English 2
Language : English
Default : No
Forced : No
Text #4
ID : 10
Format : UTF-8
Codec ID : S_TEXT/UTF8
Codec ID/Info : UTF-8 Plain Text
Title : English 1
Language : English
Default : No
Forced : No
Menu
00:00:00.000 : en:00:00:00.000
00:03:06.061 : en:00:03:06.061
00:06:47.324 : en:00:06:47.324
00:12:37.423 : en:00:12:37.423
00:16:34.619 : en:00:16:34.619
00:19:39.053 : en:00:19:39.053
00:23:50.471 : en:00:23:50.471
00:27:39.324 : en:00:27:39.324
00:31:21.630 : en:00:31:21.630
00:34:55.677 : en:00:34:55.677
00:37:20.363 : en:00:37:20.363
00:41:13.388 : en:00:41:13.388
00:43:32.860 : en:00:43:32.860
00:47:17.043 : en:00:47:17.043
00:48:39.959 : en:00:48:39.959
00:55:20.025 : en:00:55:20.025
00:57:37.746 : en:00:57:37.746
01:03:04.906 : en:01:03:04.906
01:07:24.916 : en:01:07:24.916
01:10:07.412 : en:01:10:07.412
01:10:41.654 : en:01:10:41.654
01:15:31.610 : en:01:15:31.610
01:18:57.983 : en:01:18:57.983
01:21:41.438 : en:01:21:41.438
01:25:43.555 : en:01:25:43.555

Рейтинги

Скриншоты



_________________
Показать сообщения:    

Текущее время: Сегодня 12:30

Часовой пояс: GMT



Вы не можете начинать темы
Вы не можете отвечать на сообщения
Вы не можете редактировать свои сообщения
Вы не можете удалять свои сообщения
Вы не можете голосовать в опросах
Вы не можете прикреплять файлы к сообщениям
Вы не можете скачивать файлы