Важное объявление!
У Нас Все раздачи мультитрекерные, при нуле пиров в релизах, можете смело вставать на закачку!
 
Автор Сообщение

HUNTER

Стаж:
4 года 10 месяцев
Сообщений:
65492

Репутация: 101

[+] [-]
Вне форума [Профиль] [ЛС]

Аладдин / Aladdin
Страна: США, Япония
Жанр: Мультфильм, приключения, сказка
Продолжительность: 00:47:16
Год выпуска: 1992
Перевод: Профессиональный (многоголосый закадровый)
Русские субтитры: нет
Режиссёр: Масаказу Хигучи / Masakazu Higuchi, Диана Эшкенази / Diane Eskenazi-Описание: Экранизация известной восточной сказки из 1001 ночи, про доброго юношу Аладдина, волшебную лампу, могучего Джина и прекрасную дочь султана.
На Востоке, в славном городе Аграба живет Аладдин — веселый парнишка с золотым сердцем. Живет и не знает, что вскоре его ждет величайшее приключение в жизни. Ведь только с его помощью злодей Джаффар может овладеть невероятным сокровищем — лампой, в которой заключен исполняющий желания могущественный Джинн. И только хитроумие, смекалка и доброта Аладдина и его друзей способны помешать Джаффару завладеть лампой и захватить власть над миром…
-Доп. материалы: отсутствуют
Качество: DVD5 (Custom)
Формат: DVD-video
Видео: MPEG-2 PAL, 720x576, 25fps, ~7500 Kb/s
Аудио 1: AC3, 48khz, 2ch, 192 kb/s Русский
Аудио 2: AC3, 48khz, 2ch, 192 kb/s English
Субтитры: Румынские
Релиз:

DVDInfo

Title: Aladdin 1992 DVD5Size: 2.63 Gb ( 2 757 594,00 KBytes ) - DVD-5Enabled regions: 1, 2, 3, 4, 5, 6, 8
VTS_01 : Play Length: 00:46:17 Video: PAL 4:3 (720x576) VBR Audio: Russian (Dolby AC3, 2 ch) English (Dolby AC3, 2 ch) Subtitles: Romanian
VTS_02 : Play Length: 00:00:10 Video: PAL 4:3 (720x576) VBR Audio: Not specified (Dolby AC3, 2 ch)
* Menus Information *
VIDEO_TS MenuVideo: NTSC 4:3 (720x480) VBR Auto Pan&Scan, Auto LetterboxedEnglish Language Unit : Title Menu
VTS_01 MenuVideo: PAL 4:3 (720x576) VBREnglish Language Unit : Root Menu
VTS_02 MenuVideo: PAL 4:3 (720x576) VBREnglish Language Unit : Root Menu

MediaInfo

ОбщееПолное имя : E:\MULTFILMS\Aladdin 1992 DVD5\VIDEO_TS\VTS_01_1.VOBФормат : MPEG-PSРазмер файла : 1024 МбайтПродолжительность : 17 м.Режим общего битрейта : ПеременныйОбщий поток : 8080 Кбит/сек
ВидеоИдентификатор : 224 (0xE0)Формат : MPEG VideoВерсия формата : Version 2Профиль формата : Main@MainПараметр BVOP формата : ДаПараметр матрицы формата : ВыборочнаяПараметр GOP формата : M=3, N=12Продолжительность : 17 м.Вид битрейта : ПеременныйБитрейт : 7535 Кбит/секМаксимальный битрейт : 9000 Кбит/секШирина : 720 пикселейВысота : 576 пикселейСоотношение сторон : 4:3Частота кадров : 25,000 кадров/секСтандарт вещания : PALЦветовое пространство : YUVСубдискретизация насыщенности : 4:2:0Битовая глубина : 8 битТип развёртки : ЧересстрочнаяПорядок развёртки : Нижнее поле первоеМетод сжатия : С потерямиБит/(Пиксели*Кадры) : 0.727Временной код первого кадра : 01:00:00:00Оригинал временного кода : Group of pictures headerРазмер потока : 955 Мбайт (93%)Основные цвета : BT.601 PALХарактеристики трансфера : BT.470 System B, BT.470 System GКоэффициенты матрицы : BT.601
Аудио #1Идентификатор : 189 (0xBD)-128 (0x80)Формат : AC-3Формат/Информация : Audio Coding 3Расширение режима : CM (complete main)Параметр Endianness формата : BigРежим смешивания : DVD-VideoПродолжительность : 17 м.Вид битрейта : ПостоянныйБитрейт : 192 Кбит/секКаналы : 2 каналаРасположение каналов : Front: L RЧастота : 48,0 КГцБитовая глубина : 16 битМетод сжатия : С потерямиРазмер потока : 24,3 Мбайт (2%)
Аудио #2Идентификатор : 189 (0xBD)-129 (0x81)Формат : AC-3Формат/Информация : Audio Coding 3Расширение режима : CM (complete main)Параметр Endianness формата : BigРежим смешивания : DVD-VideoПродолжительность : 17 м.Вид битрейта : ПостоянныйБитрейт : 192 Кбит/секКаналы : 2 каналаРасположение каналов : Front: L RЧастота : 48,0 КГцБитовая глубина : 16 битМетод сжатия : С потерямиРазмер потока : 24,3 Мбайт (2%)
ТекстИдентификатор : 189 (0xBD)-32 (0x20)Формат : RLEФормат/Информация : Run-length encodingРежим смешивания : DVD-Video
Меню

Скриншоты меню

Скриншоты


Информация по сборке

Диск собран из румынского DVD, румынская аудиодорожка заменена на русскую.
Используемый софт:
BeSweet+BeLight (Распаковка звука в формат wav)
Adobe Audition (Синхронизация аудио)
Minnetonka Audio (Конвертация звука в формат Dolby AC3)
PgcDemux (Разборка диска)
MuxMan (Сборка диска)
Adobe Photoshop (Редактирование пунктов меню)
DVDSubEdit (Редактирование подсветки кнопок меню)
DVDRemakePro (Реавторинг DVD)

_________________
Показать сообщения:    

Текущее время: Сегодня 00:55

Часовой пояс: GMT



Вы не можете начинать темы
Вы не можете отвечать на сообщения
Вы не можете редактировать свои сообщения
Вы не можете удалять свои сообщения
Вы не можете голосовать в опросах
Вы не можете прикреплять файлы к сообщениям
Вы не можете скачивать файлы