Важное объявление!
У Нас Все раздачи мультитрекерные, при нуле пиров в релизах, можете смело вставать на закачку!
 
Автор Сообщение

HUNTER

Стаж:
4 года 10 месяцев
Сообщений:
65576

Репутация: 101

[+] [-]
Вне форума [Профиль] [ЛС]

Аладдин 2: Возвращение Джафара / Aladdin 2: The Return Of Jafar
Страна: США
Жанр: фэнтези, приключения
Продолжительность: 01:06:16
Год выпуска: 1994
Перевод 1: Профессиональный (дублированный)
Перевод 2: Профессиональный (двухголосый закадровый) Максим Латышев и женский неизвестный
Перевод 3: Авторский (одноголосый закадровый) Гаврилов
Перевод 4: Авторский (одноголосый закадровый) Горчаков
Русские субтитры: есть
Режиссёр: Тоби Шелтон / Toby Shelton, Тэд Стоунз / Tad Stones, Элан Зэслов / Alan Zaslove
Описание: Продолжение волшебной сказки об Аладдине. Вторая часть захватывающей трилогии о храбром уличном воришке начинается прямо там, где закончился первый мультфильм. Уже казалось бы, что черному чародею и новоявленному джинну Джафару суждено навеки остаться пленником волшебной лампы, — но ему удается освободиться! И на уме у коварного злодея лишь одно: он жаждет отомстить Аладдину.
А тем временем, в Аграбе жизнь идет своим чередом. Неунывающий проказник Джинн вернулся из кругосветного путешествия, и рассказывает друзьям невероятные истории о своих приключениях. Но счастье продлится недолго. Нашим героям вновь придется встретиться с Джафаром лицом к лицу, и им пригодится вся их магия и отвага.
Немало препятствий встанет на пути наших старых знакомых Аладдина, принцессы Джасмин, Абу, Коврика и (конечно же!) Джинна. Тут и сражения с ворами на летающих лошадях, и объятые пламенем клокочущие расщелины с лавой. Но отступить нельзя — ведь на кону судьба всего королевства!
Доп. информация: за исходник звука с переводом Горчакова спасибо duckling и Miller38, DVO с DVD от Саша и Серёжа, сведена заново, поскольку в ранее сведеной дорожке изменена тональность.
Семпл: http://multi-up.com/982881
Качество: DVDRip-AVC Исходник
Формат: MKV
Видео: 700x572 (4:3) @ 748x572, 25.000 fps, AVC, ~2145 Kbps, 0.214 bits/pixel
Аудио 1: Russian, 48.0 KHz, AC3, 2 ch, 192 Kbps - Dub
Аудио 2: Russian, 48.0 KHz, AC3, 2 ch, 224 Kbps - DVO
Аудио 3: Russian, 48.0 KHz, AC3, 2 ch, 192 Kbps - AVO Гаврилов
Аудио 4: Russian, 48.0 KHz, AC3, 1 ch, 192 Kbps - AVO Горчаков
Аудио 5: English, 48.0 KHz, AC3, 2 ch, 192 Kbps
Субтитры: русские, английские
Подробные технические данные
GeneralUnique ID : 190104107154373707256693649678638157874 (0x8F04B820E5814106B19C298A42AA9032)Complete name : C:\Aladdin 2 - The Return Of Jafar.mkvFormat : MatroskaFormat version : Version 4 / Version 2File size : 1.45 GiBDuration : 1h 6mnOverall bit rate : 3 140 KbpsEncoded date : UTC 2014-06-26 03:59:35Writing application : mkvmerge v7.0.0 ('Where We Going') 64bit built on Jun 9 2014 15:16:27Writing library : libebml v1.3.0 + libmatroska v1.4.1DURATION : 01:05:46.950000000NUMBER_OF_FRAMES : 975NUMBER_OF_BYTES : 30154_STATISTICS_WRITING_APP : mkvmerge v7.0.0 ('Where We Going') 64bit built on Jun 9 2014 15:16:27_STATISTICS_WRITING_DATE_UTC : 2014-06-26 03:59:35_STATISTICS_TAGS : BPS DURATION NUMBER_OF_FRAMES NUMBER_OF_BYTES
VideoID : 1Format : AVCFormat/Info : Advanced Video CodecFormat profile : High@L3.1Format settings, CABAC : YesFormat settings, ReFrames : 10 framesCodec ID : V_MPEG4/ISO/AVCDuration : 1h 6mnBit rate : 2 145 KbpsWidth : 700 pixelsHeight : 572 pixelsDisplay aspect ratio : 4:3Frame rate mode : ConstantFrame rate : 25.000 fpsColor space : YUVChroma subsampling : 4:2:0Bit depth : 8 bitsScan type : ProgressiveBits/(Pixel*Frame) : 0.214Stream size : 989 MiB (66%)Writing library : x264 core 133 r2334 a3ac64bEncoding settings : cabac=1 / ref=10 / deblock=1:-1:-1 / analyse=0x3:0x133 / me=umh / subme=10 / psy=1 / psy_rd=1.00:0.10 / mixed_ref=1 / me_range=32 / chroma_me=1 / trellis=2 / 8x8dct=1 / cqm=0 / deadzone=21,11 / fast_pskip=0 / chroma_qp_offset=-3 / threads=6 / lookahead_threads=1 / sliced_threads=0 / nr=0 / decimate=1 / interlaced=0 / bluray_compat=0 / constrained_intra=0 / bframes=10 / b_pyramid=2 / b_adapt=2 / b_bias=0 / direct=3 / weightb=1 / open_gop=0 / weightp=2 / keyint=250 / keyint_min=25 / scenecut=40 / intra_refresh=0 / rc_lookahead=50 / rc=2pass / mbtree=1 / bitrate=2145 / ratetol=1.0 / qcomp=0.60 / qpmin=0 / qpmax=69 / qpstep=4 / cplxblur=20.0 / qblur=0.5 / ip_ratio=1.40 / aq=1:1.00Default : YesForced : No
Audio #1ID : 2Format : AC-3Format/Info : Audio Coding 3Format profile : Dolby DigitalMode extension : CM (complete main)Format settings, Endianness : BigCodec ID : A_AC3Duration : 1h 6mnBit rate mode : ConstantBit rate : 192 KbpsChannel(s) : 2 channelsChannel positions : Front: L RSampling rate : 48.0 KHzBit depth : 16 bitsCompression mode : LossyStream size : 91.0 MiB (6%)Title : DubLanguage : RussianDefault : YesForced : No
Audio #2ID : 3Format : AC-3Format/Info : Audio Coding 3Mode extension : CM (complete main)Format settings, Endianness : BigCodec ID : A_AC3Duration : 1h 6mnBit rate mode : ConstantBit rate : 224 KbpsChannel(s) : 2 channelsChannel positions : Front: L RSampling rate : 48.0 KHzBit depth : 16 bitsCompression mode : LossyStream size : 106 MiB (7%)Title : DVOLanguage : RussianDefault : NoForced : No
Audio #3ID : 4Format : AC-3Format/Info : Audio Coding 3Format profile : Dolby DigitalMode extension : CM (complete main)Format settings, Endianness : BigCodec ID : A_AC3Duration : 1h 6mnBit rate mode : ConstantBit rate : 192 KbpsChannel(s) : 2 channelsChannel positions : Front: L RSampling rate : 48.0 KHzBit depth : 16 bitsCompression mode : LossyStream size : 91.0 MiB (6%)Title : AVO ГавриловLanguage : RussianDefault : NoForced : No
Audio #4ID : 5Format : AC-3Format/Info : Audio Coding 3Mode extension : CM (complete main)Format settings, Endianness : BigCodec ID : A_AC3Duration : 1h 6mnBit rate mode : ConstantBit rate : 192 KbpsChannel(s) : 1 channelChannel positions : Front: CSampling rate : 48.0 KHzBit depth : 16 bitsCompression mode : LossyStream size : 91.0 MiB (6%)Title : AVO ГорчаковLanguage : RussianDefault : NoForced : No
Audio #5ID : 6Format : AC-3Format/Info : Audio Coding 3Format profile : Dolby DigitalMode extension : CM (complete main)Format settings, Endianness : BigCodec ID : A_AC3Duration : 1h 6mnBit rate mode : ConstantBit rate : 192 KbpsChannel(s) : 2 channelsChannel positions : Front: L RSampling rate : 48.0 KHzBit depth : 16 bitsCompression mode : LossyStream size : 91.0 MiB (6%)Language : EnglishDefault : NoForced : No
Text #1ID : 7Format : UTF-8Codec ID : S_TEXT/UTF8Codec ID/Info : UTF-8 Plain TextLanguage : RussianDefault : NoForced : No
Text #2ID : 8Format : UTF-8Codec ID : S_TEXT/UTF8Codec ID/Info : UTF-8 Plain TextLanguage : EnglishDefault : NoForced : No
Menu00:00:00.000 : :Chapter 0100:02:43.840 : :Chapter 0200:04:44.480 : :Chapter 0300:07:38.240 : :Chapter 0400:10:07.720 : :Chapter 0500:14:05.240 : :Chapter 0600:19:13.280 : :Chapter 0700:23:28.920 : :Chapter 0800:25:08.840 : :Chapter 0900:29:49.400 : :Chapter 1000:32:57.480 : :Chapter 1100:36:25.000 : :Chapter 1200:39:00.800 : :Chapter 1300:44:05.400 : :Chapter 1400:47:11.960 : :Chapter 1500:50:25.800 : :Chapter 1600:54:25.880 : :Chapter 1700:56:14.160 : :Chapter 1801:00:48.800 : :Chapter 1901:02:49.880 : :Chapter 2001:06:15.400 : :Chapter 21
Скриншоты

_________________
Показать сообщения:    

Текущее время: Сегодня 06:55

Часовой пояс: GMT



Вы не можете начинать темы
Вы не можете отвечать на сообщения
Вы не можете редактировать свои сообщения
Вы не можете удалять свои сообщения
Вы не можете голосовать в опросах
Вы не можете прикреплять файлы к сообщениям
Вы не можете скачивать файлы