Важное объявление!
У Нас Все раздачи мультитрекерные, при нуле пиров в релизах, можете смело вставать на закачку!
 
Автор Сообщение

HUNTER

Стаж:
4 года 7 месяцев
Сообщений:
61476

Репутация: 101

[+] [-]
Вне форума [Профиль] [ЛС]

Аладдин и король разбойников / Aladdin and the King of Thieves
Страна: США
Жанр: фэнтези, комедия, приключения
Продолжительность: 01:18:12
Год выпуска: 1996
Перевод 1: Профессиональный (дублированный)
Перевод 2: Авторский (одноголосый закадровый) Юрий Живов
Перевод 3: Авторский (одноголосый закадровый) Сергей Кузнецов
Русские субтитры: есть
Режиссёр: Тэд Стоунс / Tad Stones
Описание: Все жители Аграбы дружно готовятся к величайшему празднику — вот-вот состоится долгожданная свадьба Аладдина и принцессы Жасмин! Но сначала нашему герою придется остановить легендарную шайку сорока разбойников — ведь они хотят похитить свадебный подарок — всевидящего Оракула, с помощью которого злодеи хотят отыскать и прибрать к своим рукам все сокровища мира.
Аладдину и его неразлучным друзьям — Жасмин, Абу, Коврику и весельчаку Джинну придется пережить немало приключений и найти выход из самых безвыходных ситуаций в погоне за Королем Разбойников и его удалой безжалостной шайкой.
Доп. информация: За оцифровку VHS с переводом Сергея Кузнецова спасибо RockNIK.
Синхронизация дубляжа и перевода Сергея Кузнецова - Dreven.
Семпл: http://multi-up.com/1015305
Качество: DVDRip-AVC Исходник
Формат: MKV
Видео: 708x572 (4:3) @ 756x572, 25.000 fps, AVC, ~1515 Kbps, 0.150 bits/pixel
Аудио 1: Russian, 48.0 KHz, AC3, 2 ch, 192 Kbps - Dub
Аудио 2: Russian, 48.0 KHz, AC3, 6 ch, 384 Kbps - AVO Юрий Живов
Аудио 3: Russian, 48.0 KHz, AC3, 2 ch, 192 Kbps - AVO Сергей Кузнецов
Аудио 4: English, 48.0 KHz, AC3, 6 ch, 384 Kbps
Субтитры: русские, английские

Log

avs4x264.exe: -L x264_64.exe --pass 2 --bitrate 1515 --preset medium --ref 10 --deblock -1:-1 --merange 32 --bframes 10 --direct auto --b-adapt 2 --trellis 2 --no-fast-pskip --psy-rd 1.00:0.10 --partitions all --subme 10 --me umh --rc-lookahead 50 --sar 16:15 --stats "C:\Users\1\Desktop\Aladdin 3.log" --output "C:\Users\1\Desktop\Aladdin 3.mp4" "C:\Temp\0004.avs"
raw [info]: 708x572p 16:15 @ 25/1 fps (cfr)
x264 [info]: using SAR=16/15
x264 [info]: using cpu capabilities: MMX2 SSE2Fast LZCNT
x264 [info]: profile High, level 3.1
x264 [info]: frame I:1160 Avg QP:15.15 size: 46548
x264 [info]: frame P:32052 Avg QP:18.37 size: 16199
x264 [info]: frame B:84085 Avg QP:21.52 size: 3750
x264 [info]: consecutive B-frames: 3.7% 5.1% 19.0% 37.2% 21.1% 12.6% 0.8% 0.3% 0.2% 0.1% 0.1%
x264 [info]: mb I I16..4: 6.4% 69.1% 24.5%
x264 [info]: mb P I16..4: 2.6% 12.7% 2.7% P16..4: 42.6% 18.9% 13.3% 0.4% 0.1% skip: 6.6%
x264 [info]: mb B I16..4: 0.2% 0.7% 0.2% B16..8: 36.5% 8.1% 2.1% direct: 4.0% skip:48.3% L0:46.5% L1:46.9% BI: 6.6%
x264 [info]: 8x8 transform intra:69.6% inter:64.2%
x264 [info]: direct mvs spatial:98.6% temporal:1.4%
x264 [info]: coded y,uvDC,uvAC intra: 73.1% 81.7% 64.1% inter: 16.1% 20.8% 6.1%
x264 [info]: i16 v,h,dc,p: 43% 19% 13% 24%
x264 [info]: i8 v,h,dc,ddl,ddr,vr,hd,vl,hu: 13% 11% 13% 8% 10% 10% 11% 11% 13%
x264 [info]: i4 v,h,dc,ddl,ddr,vr,hd,vl,hu: 16% 12% 7% 9% 13% 12% 11% 9% 11%
x264 [info]: i8c dc,h,v,p: 33% 27% 26% 15%
x264 [info]: Weighted P-Frames: Y:7.8% UV:2.8%
x264 [info]: ref P L0: 46.8% 8.7% 18.3% 6.6% 5.4% 4.0% 3.5% 2.1% 2.0% 1.9% 0.7% 0.0%
x264 [info]: ref B L0: 75.0% 12.7% 4.8% 2.4% 1.6% 1.3% 1.1% 0.6% 0.4%
x264 [info]: ref B L1: 93.2% 6.8%
x264 [info]: kb/s:1515.04
x264 [total]: encoded 117297 frames, 13.18 fps, 1515.04 kb/s

Сравнение с широкоформатной версией

http://screenshotcomparison.com/comparison/101523/picture:2

Подробные технические данные

GeneralUnique ID : 246282267859308154539999383492781373682 (0xB9483D4C36CB5BEFA25BDB40296B78F2)Complete name : C:\Aladdin and the King of Thieves.mkvFormat : MatroskaFormat version : Version 4 / Version 2File size : 1.46 GiBDuration : 1h 18mnOverall bit rate : 2 670 KbpsEncoded date : UTC 2014-11-24 15:29:40Writing application : mkvmerge v7.2.0 ('On Every Street') 64bit built on Sep 13 2014 15:52:10Writing library : libebml v1.3.0 + libmatroska v1.4.1DURATION : 01:17:28.230000000NUMBER_OF_FRAMES : 965NUMBER_OF_BYTES : 37543_STATISTICS_WRITING_APP : mkvmerge v7.2.0 ('On Every Street') 64bit built on Sep 13 2014 15:52:10_STATISTICS_WRITING_DATE_UT : 2014-11-24 15:29:40_STATISTICS_TAGS : BPS DURATION NUMBER_OF_FRAMES NUMBER_OF_BYTES
VideoID : 1Format : AVCFormat/Info : Advanced Video CodecFormat profile : High@L3.1Format settings, CABAC : YesFormat settings, ReFrames : 10 framesCodec ID : V_MPEG4/ISO/AVCDuration : 1h 18mnBit rate : 1 515 KbpsWidth : 708 pixelsHeight : 572 pixelsDisplay aspect ratio : 4:3Frame rate mode : ConstantFrame rate : 25.000 fpsColor space : YUVChroma subsampling : 4:2:0Bit depth : 8 bitsScan type : ProgressiveBits/(Pixel*Frame) : 0.150Stream size : 819 MiB (55%)Writing library : x264 core 142 r2479 dd79a61Encoding settings : cabac=1 / ref=10 / deblock=1:-1:-1 / analyse=0x3:0x133 / me=umh / subme=10 / psy=1 / psy_rd=1.00:0.10 / mixed_ref=1 / me_range=32 / chroma_me=1 / trellis=2 / 8x8dct=1 / cqm=0 / deadzone=21,11 / fast_pskip=0 / chroma_qp_offset=-3 / threads=6 / lookahead_threads=1 / sliced_threads=0 / nr=0 / decimate=1 / interlaced=0 / bluray_compat=0 / constrained_intra=0 / bframes=10 / b_pyramid=2 / b_adapt=2 / b_bias=0 / direct=3 / weightb=1 / open_gop=0 / weightp=2 / keyint=250 / keyint_min=25 / scenecut=40 / intra_refresh=0 / rc_lookahead=50 / rc=2pass / mbtree=1 / bitrate=1515 / ratetol=1.0 / qcomp=0.60 / qpmin=0 / qpmax=69 / qpstep=4 / cplxblur=20.0 / qblur=0.5 / ip_ratio=1.40 / aq=1:1.00Default : YesForced : No
Audio #1ID : 2Format : AC-3Format/Info : Audio Coding 3Mode extension : CM (complete main)Format settings, Endianness : BigCodec ID : A_AC3Duration : 1h 18mnBit rate mode : ConstantBit rate : 192 KbpsChannel(s) : 2 channelsChannel positions : Front: L RSampling rate : 48.0 KHzBit depth : 16 bitsCompression mode : LossyStream size : 107 MiB (7%)Title : DubLanguage : RussianDefault : YesForced : No
Audio #2ID : 3Format : AC-3Format/Info : Audio Coding 3Mode extension : CM (complete main)Format settings, Endianness : BigCodec ID : A_AC3Duration : 1h 18mnBit rate mode : ConstantBit rate : 384 KbpsChannel(s) : 6 channelsChannel positions : Front: L C R, Side: L R, LFESampling rate : 48.0 KHzBit depth : 16 bitsCompression mode : LossyStream size : 215 MiB (14%)Title : AVO Юрий ЖивовLanguage : RussianDefault : NoForced : No
Audio #3ID : 4Format : AC-3Format/Info : Audio Coding 3Mode extension : CM (complete main)Format settings, Endianness : BigCodec ID : A_AC3Duration : 1h 18mnBit rate mode : ConstantBit rate : 192 KbpsChannel(s) : 2 channelsChannel positions : Front: L RSampling rate : 48.0 KHzBit depth : 16 bitsCompression mode : LossyStream size : 107 MiB (7%)Title : VOLanguage : RussianDefault : NoForced : No
Audio #4ID : 5Format : AC-3Format/Info : Audio Coding 3Mode extension : CM (complete main)Format settings, Endianness : BigCodec ID : A_AC3Duration : 1h 18mnBit rate mode : ConstantBit rate : 384 KbpsChannel(s) : 6 channelsChannel positions : Front: L C R, Side: L R, LFESampling rate : 48.0 KHzBit depth : 16 bitsCompression mode : LossyStream size : 215 MiB (14%)Language : EnglishDefault : NoForced : No
Text #1ID : 6Format : UTF-8Codec ID : S_TEXT/UTF8Codec ID/Info : UTF-8 Plain TextLanguage : RussianDefault : NoForced : No
Text #2ID : 7Format : UTF-8Codec ID : S_TEXT/UTF8Codec ID/Info : UTF-8 Plain TextLanguage : EnglishDefault : NoForced : No
Menu00:00:00.000 : :Chapter 0100:01:25.520 : :Chapter 0200:07:27.680 : :Chapter 0300:11:17.880 : :Chapter 0400:16:34.680 : :Chapter 0500:25:12.280 : :Chapter 0600:33:02.640 : :Chapter 0700:45:37.880 : :Chapter 0800:50:17.240 : :Chapter 0900:55:44.240 : :Chapter 1001:02:56.160 : :Chapter 1101:12:00.240 : :Chapter 1201:14:05.120 : :Chapter 13

Скриншоты


_________________
Показать сообщения:    

Текущее время: Сегодня 18:22

Часовой пояс: GMT



Вы не можете начинать темы
Вы не можете отвечать на сообщения
Вы не можете редактировать свои сообщения
Вы не можете удалять свои сообщения
Вы не можете голосовать в опросах
Вы не можете прикреплять файлы к сообщениям
Вы не можете скачивать файлы
Наши партнеры: интернет магазин Ивановского трикотажа textilla.ru