Важное объявление!
У Нас Все раздачи мультитрекерные, при нуле пиров в релизах, можете смело вставать на закачку!
 
Автор Сообщение

HUNTER

Стаж:
4 года 10 месяцев
Сообщений:
65485

Репутация: 101

[+] [-]
Вне форума [Профиль] [ЛС]

Аладдин и король разбойников / Aladdin and the King of Thieves-
Год выпуска: 1996
Страна: США
Жанр: мультфильм, мюзикл, фэнтези, мелодрама, комедия, семейный
Продолжительность: 01:21:32
Перевод: Профессиональный (полное дублирование)
Оригинальная звуковая дорожка: English
Субтитры: Русские, Английские (полные, SDH, SDH Colored) (внешние srt*) (спасибо Elheym)-Режиссер: Тэд Стоунс / Tad Stones
Роли озвучивали: Вэл Бэттин, Джим Каммингс, Гилберт Готтфрид, Линда Ларкин, Джерри Орбак, Джон Рис-Дэвис, Скотт Венгер, Фрэнк Уэлкер, Робин Уильямс, Джефф Беннетт
О фильме: Все жители Аграбы дружно готовятся к величайшему празднику — вот-вот состоится долгожданная свадьба Аладдина и принцессы Жасмин! Но сначала нашему герою придется остановить легендарную шайку сорока разбойников — ведь они хотят похитить свадебный подарок — всевидящего Оракула, с помощью которого злодеи хотят отыскать и прибрать к своим рукам все сокровища мира.
Аладдину и его неразлучным друзьям — Жасмин, Абу, Коврику и весельчаку Джинну придется пережить немало приключений и найти выход из самых безвыходных ситуаций в погоне за Королем Разбойников и его удалой безжалостной шайкой.-Релиз:
Автор: kingsize87
Качество: BDRip (источник: / Blu-ray / 1080i)
Формат: AVI
Видео: 720x400 (1.80:1), 23,976 fps, XviD build 66 ~1769 kbps avg, 0.26 bit/pixel
Аудио #1: 48 kHz, AC3 Dolby Digital, 3/2 (L,C,R,l,r) + LFE ch, ~384.00 kbps avg rus
Аудио #2: 48 kHz, AC3 Dolby Digital, 3/2 (L,C,R,l,r) + LFE ch, ~384.00 kbps avg eng
Размер: 1488.50 Mb (1/3 DVD-R)
Скачать: Семпл-

Кадры из фильма


-

Mi

Формат : AVI
Формат/Информация : Audio Video Interleave
Размер файла : 1,45 Гбайт
Продолжительность : 1 ч. 21 м.
Общий поток : 2552 Кбит/сек
Название фильма : Аладдин и король разбойников / Aladdin and the King of Thieves (1996) BDRip
Режиссёр : kingsize87
Программа кодирования : VirtualDubMod 1.5.10.2 (build 2540/release)
Правообладатель : HQCLUB
Примечание : 06.03.2016
Видео
Идентификатор : 0
Формат : MPEG-4 Visual
Профиль формата : Advanced Simple@L5
Параметр BVOP формата : 1
Параметр QPel формата : Нет
Параметр GMC формата : Без точки перехода
Параметр матрицы формата : Выборочная
Идентификатор кодека : XVID
Идентификатор кодека/Подсказка : XviD
Продолжительность : 1 ч. 21 м.
Битрейт : 1770 Кбит/сек
Ширина : 720 пикселей
Высота : 400 пикселей
Соотношение сторон : 16:9
Частота кадров : 23,976 кадра/сек
Цветовое пространство : YUV
Субдискретизация насыщенности : 4:2:0
Битовая глубина : 8 бит
Тип развёртки : Прогрессивная
Метод сжатия : С потерями
Бит/(Пиксели*Кадры) : 0.256
Размер потока : 1,01 Гбайт (69%)
Библиотека кодирования : XviD 66
Аудио #1
Идентификатор : 1
Формат : AC-3
Формат/Информация : Audio Coding 3
Расширение режима : CM (complete main)
Параметр Endianness формата : Big
Идентификатор кодека : 2000
Продолжительность : 1 ч. 21 м.
Вид битрейта : Постоянный
Битрейт : 384 Кбит/сек
Каналы : 6 каналов
Расположение каналов : Front: L C R, Side: L R, LFE
Частота : 48,0 КГц
Битовая глубина : 16 бит
Метод сжатия : С потерями
Размер потока : 224 Мбайт (15%)
Выравнивание : Разделение по промежуткам
Продолжительность промежутка : 42 мс. (1,00 видеокадр)
Время предзагрузки промежутка : 500 мс.
Аудио #2
Идентификатор : 2
Формат : AC-3
Формат/Информация : Audio Coding 3
Расширение режима : CM (complete main)
Параметр Endianness формата : Big
Идентификатор кодека : 2000
Продолжительность : 1 ч. 21 м.
Вид битрейта : Постоянный
Битрейт : 384 Кбит/сек
Каналы : 6 каналов
Расположение каналов : Front: L C R, Side: L R, LFE
Частота : 48,0 КГц
Битовая глубина : 16 бит
Метод сжатия : С потерями
Размер потока : 224 Мбайт (15%)
Выравнивание : Разделение по промежуткам
Продолжительность промежутка : 42 мс. (1,00 видеокадр)
Время предзагрузки промежутка : 500 мс.
-

_________________
Показать сообщения:    

Текущее время: Сегодня 22:18

Часовой пояс: GMT



Вы не можете начинать темы
Вы не можете отвечать на сообщения
Вы не можете редактировать свои сообщения
Вы не можете удалять свои сообщения
Вы не можете голосовать в опросах
Вы не можете прикреплять файлы к сообщениям
Вы не можете скачивать файлы