Важное объявление!
У Нас Все раздачи мультитрекерные, при нуле пиров в релизах, можете смело вставать на закачку!
 
Автор Сообщение

HUNTER

Стаж:
4 года 8 месяцев
Сообщений:
62116

Репутация: 101

[+] [-]
Вне форума [Профиль] [ЛС]

-Актёры города Мекаку / Mekakucity Actors / Mekaku City Actors-
Страна: Япония
Год выпуска: 2014 г.
Жанр: фантастика, сверхъестественное, комедия
Тип: TV
Продолжительность: 12 эп. по 25 мин.-Субтитры: YakuSub Studio
Перевод: Nika_Elrik
Редакция: sakurovn
Оформление: Helge
-Режиссер: Симбо Акиюки
Студия: SHAFT-Описание: Шинтаро Кисараги - 18-летний хиккикомори, который уже два года не выходит из своей комнаты. Все было нормально, пока он не повстречал кибер-девушку по имени Энэ, которая внезапно появилась на экране его компьютера. Из-за нее Шинтаро-кун пролил воду на клавиатуру. Увы, она сломалась... Нужна новая клавиатура! Юноше пришлось первый раз за два года выйти на улицу. И вот он идет в универмаг за новым оборудованием, где встречает группу преступников и нескольких людей, которые называют себя "Ослепляющей бандой", храбро сражаясь с преступниками. "Банда" предлагает Шинтаро присоединиться к ним.
Знаете ли, наверное все это не случайно...-Качество: HDTVRip
Тип релиза: Без хардсаба
Формат видео: MP4
Энкод: Leopard-Raws
Видео: AVC, 1280x720, 8 bit, ~1460 Kbps, 23.976 fps
Аудио: AAC, 48.0 KHz, stereo, 192 Kbps, 2ch

Подробные тех. данные

GeneralComplete name : A:\[Leopard-Raws] Mekaku City Actors - 01 RAW (MX 1280x720 x264 AAC).mp4Format : MPEG-4Format profile : Base MediaCodec ID : isomFile size : 289 MiBDuration : 24mn 14sOverall bit rate mode : VariableOverall bit rate : 1 664 KbpsEncoded date : UTC 2014-04-13 06:12:16Tagged date : UTC 2014-04-13 06:12:16
VideoID : 1Format : AVCFormat/Info : Advanced Video CodecFormat profile : High@L4.1Format settings, CABAC : YesFormat settings, ReFrames : 4 framesCodec ID : avc1Codec ID/Info : Advanced Video CodingDuration : 24mn 14sBit rate : 1 469 KbpsMaximum bit rate : 18.9 MbpsWidth : 1 280 pixelsHeight : 720 pixelsDisplay aspect ratio : 16:9Frame rate mode : ConstantFrame rate : 23.976 fpsColor space : YUVChroma subsampling : 4:2:0Bit depth : 8 bitsScan type : ProgressiveBits/(Pixel*Frame) : 0.066Stream size : 255 MiB (88%)Title : 264:fps=23.976@GPAC0.5.1-DEV-rev4283Writing library : x264 core 129 r2245+729M 1a52e03Encoding settings : cabac=1 / ref=4 / deblock=1:1:-1 / analyse=0x3:0x113 / me=umh / subme=9 / psy=1 / fade_compensate=0.00 / psy_rd=1.00:0.00 / mixed_ref=1 / me_range=24 / chroma_me=1 / trellis=2 / 8x8dct=1 / cqm=0 / deadzone=21,11 / fast_pskip=1 / chroma_qp_offset=-2 / threads=8 / lookahead_threads=1 / sliced_threads=0 / nr=0 / decimate=1 / interlaced=0 / bluray_compat=0 / constrained_intra=0 / fgo=0 / bframes=9 / b_pyramid=2 / b_adapt=2 / b_bias=0 / direct=1 / weightb=1 / open_gop=0 / weightp=2 / keyint=240 / keyint_min=24 / scenecut=40 / intra_refresh=0 / rc=crf / mbtree=0 / crf=19.0 / qcomp=0.72 / qpmin=0 / qpmax=69 / qpstep=4 / ip_ratio=1.40 / pb_ratio=1.30 / aq=1:0.85Encoded date : UTC 2014-04-13 06:12:16Tagged date : UTC 2014-04-13 06:12:18Color primaries : BT.709-5, BT.1361, IEC 61966-2-4, SMPTE RP177Transfer characteristics : BT.709-5, BT.1361Matrix coefficients : BT.709-5, BT.1361, IEC 61966-2-4 709, SMPTE RP177
AudioID : 2Format : AACFormat/Info : Advanced Audio CodecFormat profile : LCCodec ID : 40Duration : 24mn 14sBit rate mode : VariableBit rate : 192 KbpsMaximum bit rate : 234 KbpsChannel(s) : 2 channelsChannel positions : Front: L RSampling rate : 48.0 KHzCompression mode : LossyStream size : 33.2 MiB (12%)Language : JapaneseEncoded date : UTC 2014-04-12 21:10:08Tagged date : UTC 2014-04-13 06:12:18

Список эпизодов

01 - Искусственный враг

Скриншоты


_________________
Показать сообщения:    

Текущее время: Сегодня 15:03

Часовой пояс: GMT



Вы не можете начинать темы
Вы не можете отвечать на сообщения
Вы не можете редактировать свои сообщения
Вы не можете удалять свои сообщения
Вы не можете голосовать в опросах
Вы не можете прикреплять файлы к сообщениям
Вы не можете скачивать файлы
Наши партнеры: интернет магазин Ивановского трикотажа textilla.ru