Ивановский Торрент трекер
Яндекс.Погода
 

[Цитировать]
HUNTER

Аква Тин Хангер Форс Фильм / Aqua Teen Hunger Force Movie
Страна: США
Студия: Williams Street
Жанр: Комедия, Чёрный юмор, Трэш
Продолжительность: 01:25:27
Год выпуска: 2007
Перевод 1: Профессиональный (многоголосый закадровый) [2x2]
Перевод 2: Авторский (одноголосый закадровый) Василий Горчаков
Режиссёр: Мэтт Мейларио, Дэйв Уиллис / Matt Maiellaro, Dave Willis
Роли озвучивали: Dana Snyder, Carey Means, Dave Willis, Matt Maiellaro, Mike Schatz, Andy Merrill, C. Martin Croker, Bruce Campbell, Neil Peart, Chris Kattan-Описание: Команда Фастфуд - это молочный коктейль, картошка фри и тефтелька, которых соотвественно зовут Шейк, Фрай и Тефтель. Живут они в обычном городе с соседом грузином Карлом. Шейк - властный садист, Фрай - организатор и мозг команды, которого, судя по всему, у остальных нет. Тефтель же - просто кусок жареного фарша. Эту удивительную троицу ждут захватывающие приключения, которые раскроют тайну их происхождения. Когда бессмертный мир вещей угрожает галактическому балансу, подключается Команда Фастфуд, чтобы избежать трагедии!
Этот мультфильм для взрослых создан на основе одноименного сериала. Сюжет - полный трэш. Герои вылезают из пирамиды, сражаются с боевым пуделем, встречают знахаря Линкольна, который отправил их, видимо, в будущее. Там с героями и их соседом начинают происходить ну совершенно безумные вещи...-Релиз группы: -Качество: WEB-DL 1080p |BTN|
Формат: MKV
Видео: MPEG-4 AVC, 1920x1080, 23.976 fps, 4819 kbps
Аудио 1: Русский, AC3 Dolby Digital, 2 ch, 192 kbps, 48 kHz |2x2|
Аудио 2: Русский, AC3 Dolby Digital, 2 ch, 192 kbps, 48 kHz |Горчаков|
Аудио 2: Английский, AC3 Dolby Digital, 6 ch, 384 kbps, 48 kHz
Субтитры: Английские | SubRip
Сэмпл
WEB-DL 720p
Все раздачи мультфильма
Все раздачи мультсериала

Скриншоты


MI


Общее
Уникальный идентификатор : 218252350739346060780972385372182513823 (0xA431DFAF889E8460BE6B81D319E9889F)
Полное имя : D:\Раздачи\Aqua.Teen.Hunger.Force.Colon.Movie.Film.for.Theaters.1080p.WEB-DL.H.264-Zuich32.mkv
Формат : Matroska
Версия формата : Version 4 / Version 2
Размер файла : 3,41 Гбайт
Продолжительность : 1 ч. 25 м.
Общий поток : 5701 Кбит/сек
Дата кодирования : UTC 2015-07-30 19:26:33
Программа кодирования : mkvmerge v8.2.0 ('World of Adventure') 64bit
Библиотека кодирования : libebml v1.3.1 + libmatroska v1.4.2
Видео
Идентификатор : 1
Формат : AVC
Формат/Информация : Advanced Video Codec
Профиль формата : High@L4.0
Параметр CABAC формата : Да
Параметр ReFrames формата : 4 кадра
Идентификатор кодека : V_MPEG4/ISO/AVC
Продолжительность : 1 ч. 25 м.
Битрейт : 4819 Кбит/сек
Ширина : 1920 пикселей
Высота : 1080 пикселей
Соотношение сторон : 16:9
Режим частоты кадров : Постоянный
Частота кадров : 23,976 кадра/сек
Цветовое пространство : YUV
Субдискретизация насыщенности : 4:2:0
Битовая глубина : 8 бит
Тип развёртки : Прогрессивная
Бит/(Пиксели*Кадры) : 0.097
Размер потока : 2,88 Гбайт (85%)
Заголовок : Aqua Teen Hunger Force Colon Movie Film for Theaters
Default : Да
Forced : Нет
Основные цвета : BT.709
Характеристики трансфера : BT.709
Коэффициенты матрицы : BT.709
colour_range : Limited
Аудио #1
Идентификатор : 2
Формат : AC-3
Формат/Информация : Audio Coding 3
Расширение режима : CM (complete main)
Параметр Endianness формата : Big
Идентификатор кодека : A_AC3
Продолжительность : 1 ч. 25 м.
Вид битрейта : Постоянный
Битрейт : 192 Кбит/сек
Каналы : 2 канала
Расположение каналов : Front: L R
Частота : 48,0 КГц
Битовая глубина : 16 бит
Метод сжатия : С потерями
Размер потока : 117 Мбайт (3%)
Заголовок : MVO [2x2] - AC3 Dolby Digital, 2ch, 192 kbps, 48 kHz
Язык : Russian
Default : Да
Forced : Нет
Аудио #2
Идентификатор : 3
Формат : AC-3
Формат/Информация : Audio Coding 3
Расширение режима : CM (complete main)
Параметр Endianness формата : Big
Идентификатор кодека : A_AC3
Продолжительность : 1 ч. 25 м.
Вид битрейта : Постоянный
Битрейт : 192 Кбит/сек
Каналы : 2 канала
Расположение каналов : Front: L R
Частота : 48,0 КГц
Битовая глубина : 16 бит
Метод сжатия : С потерями
Размер потока : 117 Мбайт (3%)
Заголовок : AVO Gorchakov - AC3 Dolby Digital, 2ch, 192 kbps, 48 kHz
Язык : Russian
Default : Нет
Forced : Нет
Аудио #3
Идентификатор : 4
Формат : AC-3
Формат/Информация : Audio Coding 3
Расширение режима : CM (complete main)
Параметр Endianness формата : Big
Идентификатор кодека : A_AC3
Продолжительность : 1 ч. 25 м.
Вид битрейта : Постоянный
Битрейт : 384 Кбит/сек
Каналы : 6 каналов
Расположение каналов : Front: L C R, Side: L R, LFE
Частота : 48,0 КГц
Битовая глубина : 16 бит
Метод сжатия : С потерями
Размер потока : 235 Мбайт (7%)
Заголовок : Original - AC3 Dolby Digital, 6ch, 384 kbps, 48 kHz
Язык : English
Default : Нет
Forced : Нет
Текст
Идентификатор : 5
Формат : UTF-8
Идентификатор кодека : S_TEXT/UTF8
Идентификатор кодека/Информация : UTF-8 Plain Text
Заголовок : Aqua Teen Hunger Force Colon Movie Film for Theaters
Язык : English
Default : Да
Forced : Нет


Показать сообщения:    

Текущее время: 11-Дек 04:13

Часовой пояс: UTC ± 0


Вы не можете начинать темы
Вы не можете отвечать на сообщения
Вы не можете редактировать свои сообщения
Вы не можете удалять свои сообщения
Вы не можете голосовать в опросах
Вы не можете прикреплять файлы к сообщениям
Вы не можете скачивать файлы

!ВНИМАНИЕ!
Сайт не предоставляет электронные версии произведений, а занимается лишь коллекционированием и каталогизацией ссылок, присылаемых и публикуемых на форуме нашими читателями. Если вы являетесь правообладателем какого-либо представленного материала и не желаете, чтобы ссылка на него находилась в нашем каталоге, свяжитесь с нами, и мы незамедлительно удалим ее. Файлы для обмена на трекере предоставлены пользователями сайта, и администрация не несет ответственности за их содержание. Просьба не заливать файлы, защищенные авторскими правами, а также файлы нелегального содержания!