Важное объявление!
У Нас Все раздачи мультитрекерные, при нуле пиров в релизах, можете смело вставать на закачку!
 
Автор Сообщение

HUNTER

Стаж:
4 года 11 месяцев
Сообщений:
66019

Репутация: 101

[+] [-]
Вне форума [Профиль] [ЛС]

Азур и Азмар / Azur et Asmar / Azur and Asmar
Страна:Франция, Бельгия, Испания, Италия
Студия:Artemis Productions, Canal+ [fr], Centre National de la Cinematographie (CNC), Cofinova 2, Eurimages, France 3 Cinema, Intuition Films, Lucky Red, Mac Guff Ligne, Nord-Ouest Productions, Region Ile-de-France, Rhone-Alpes Cinema, S2 International, Studio O, TPS Star, Zahori Media.
Жанр:Мультфильм, Фэнтези, Приключения, СемейныйГод выпуска:2006
Продолжительность:01:34:39
Производитель:Lucky Red
Перевод:Профессиональный (многоголосый закадровый)
Cубтитры:Английские
Оригинальная аудиодорожка:Французский
Премьера (мир):21.05.2006
Режиссер:Мишель Осело / Michel OcelotРоли озвучивали:Сирил Мурали, Карим М’Риба, Хиам Аббасс, Патрик Тимси, Райан Махюб, Абдельсселем Бен Амар, Фатима Бен Келл, Тисса д’Авилья Бенсалах, София Бутелла, Оливье Клавери
Описание:Красавец-блондин Азур с глазами цвета ясного неба — сын владелицы замка. Брюнет Азмар, чьи очи черны, как самая темная ночь Востока, — сын кормилицы. В зеленой и процветающей стране они росли, как родные братья. Судьба разлучила друзей, но они не забыли счастья своего детства и сказок о далекой стране мечты, о которой когда-то рассказывала им кормилица.
Став взрослым, сильный и умный Азур отправляется на поиски этой загадочной страны, где обитает могущественная Фея Джиннов. Сказка детства привела в эти края и храброго Азмара, который тоже полон решимости во что бы то ни стало разыскать Фею, невзирая на все опасности и чары этого волшебного государства, где встречаются день и ночь, где счастье и любовь — на волоске от смерти…

Доп. информация:Исходник найден в сети.
Профессиональный (многоголосый закадровый)взят из раздачи dragomire-http://rutracker.org/forum/viewtopic.php?t=3178806.Звук изначально дутый, переведен в AC3, 2 ch, 48.0 KHz, 192 Кбит/сек.
Реавторинг Нордер.Огромное Спасибо Всем, без чьей помощи этот релиз не состоялся бы!Сценарий:Мишель ОселоПродюсер:Жак Блед, Филипп Боэффард, Патрик ХуаресКомпозитор:Габриэль ЯредХудожник:Анне-Лисе Колер, Даниэль КакуоМонтаж:Мишель Пежю

Награды и номинации


Рецензия

Софт

PGCDemux (извлечение).
BeSweet, Sony Vegas 9 (звук).
DVD-lab PRO 2.
MuxMan (сборка). DvdReMakePro (финал).

Бонусы:(Без перевода)

Меню:Итальянский, анимированое, озвученное.Сэмпл:https://www.sendspace.com/file/cip2h4
Тип релиза:DVD9 (Custom)
Контейнер:DVD-Video
Видео:PAL 16:9 (720x576) VBR, Auto Pan&Scan, Auto Letterboxed, 4678 Кбит/сек, 25,000 кадров/сек
Аудио 1:Итальянский:AC3, 6 ch, 48.0 KHz, 384 Кбит/сек
Аудио 2:Русский:AC3, 2 ch, 48.0 KHz, 192 Кбит/сек / Профессиональный (многоголосый закадровый)Аудио 3:Французский:AC3, 6 ch, 48.0 KHz, 384 Кбит/сек / (Оригинал)Формат субтитров:prerendered (DVD/IDX+SUB)

Dvd Info

Title: Azur and Asmar DVD-9_Custom
Size: 7.95 Gb ( 8 333 520,00 KBytes ) - DVD-9
Enabled regions: 1, 2, 3, 4, 5, 6, 7, 8
VTS_01 :
Play Length: 01:34:39
Video: PAL 16:9 (720x576) VBR, Auto Pan&Scan, Auto Letterboxed
Audio:
Italiano (Dolby AC3, 6 ch)
Russian (Dolby AC3, 2 ch)
Francais (Dolby AC3, 6 ch)
Subtitles:
English
VTS_02 :
Play Length: 00:00:00
Video: PAL 16:9 (720x576) VBR, Auto Letterboxed
VTS_03 :
Play Length: 00:00:00
Video: PAL 16:9 (720x576) VBR, Auto Letterboxed
VTS_04 :
Play Length: 00:00:11
Video: PAL 16:9 (720x576) VBR, Auto Letterboxed
Audio:
Not specified (Dolby AC3, 2 ch)
VTS_05 :
Play Length: 00:01:18
Video: PAL 4:3 (720x576) VBR
Audio:
Italiano, AC3, 2/0 (L,R) ch, 192 kbps, Delay 0 mSec
VTS_06 :
Play Length: 00:12:46
Video: PAL 4:3 (720x576) VBR
Audio:
Francais, AC3, 2/0 (L,R) ch, 192 kbps, Delay 0 mSec
Subtitles:
Italiano
VTS_07 :
Play Length: 00:34:55
Video: PAL 4:3 (720x576) VBR
Audio:
Francais, AC3, 2/0 (L,R) ch, 192 kbps, Delay 0 mSec
Subtitles:
Italiano
VTS_08 :
Play Length: 00:29:39
Video: PAL 4:3 (720x576) VBR
Audio:
Francais, AC3, 2/0 (L,R) ch, 192 kbps, Delay 0 mSec
Subtitles:
Italiano
VTS_09 :
Play Length: 00:05:09
Video: PAL 4:3 (720x576) VBR
Audio:
Italiano, AC3, 2/0 (L,R) ch, 192 kbps, Delay 0 mSec
Subtitles:
Italiano

Mediainfo

Общее
Полное имя: F:\Azur and Asmar DVD-9_Custom\VIDEO_TS\VTS_01_1.VOB
Формат : MPEG-PS
Размер файла : 1024 Мбайт
Продолжительность : 24 м.
Режим общего битрейта : Переменный
Общий поток : 5753 Кбит/сек
Видео
Идентификатор : 224 (0xE0)
Формат : MPEG Video
Версия формата : Version 2
Профиль формата : Main@Main
Параметр BVOP формата : Да
Параметр матрицы формата : Выборочная
Параметр GOP формата : M=3, N=15
Продолжительность : 24 м.
Вид битрейта : Переменный
Битрейт : 4678 Кбит/сек
Максимальный битрейт : 7000 Кбит/сек
Ширина : 720 пикселей
Высота : 576 пикселей
Соотношение сторон : 2,40:1
Частота кадров : 25,000 кадров/сек
Стандарт вещания : PAL
Цветовое пространство : YUV
Субдискретизация насыщенности : 4:2:0
Битовая глубина : 8 бит
Тип развёртки : Чересстрочная
Порядок развёртки : Верхнее поле первое
Метод сжатия : С потерями
Бит/(Пиксели*Кадры) : 0.451
Временной код первого кадра : 00:00:00:00
Оригинал временного кода : Group of pictures header
Размер потока : 833 Мбайт (81%)
Аудио #1
Идентификатор : 189 (0xBD)-128 (0x80)
Формат : AC-3
Формат/Информация : Audio Coding 3
Расширение режима : CM (complete main)
Параметр Endianness формата : Big
Режим смешивания : DVD-Video
Продолжительность : 24 м.
Вид битрейта : Постоянный
Битрейт : 384 Кбит/сек
Каналы : 6 каналов
Расположение каналов : Front: L C R, Side: L R, LFE
Частота : 48,0 КГц
Битовая глубина : 16 бит
Метод сжатия : С потерями
Размер потока : 68,3 Мбайт (7%)
Аудио #2
Идентификатор : 189 (0xBD)-129 (0x81)
Формат : AC-3
Формат/Информация : Audio Coding 3
Расширение режима : CM (complete main)
Параметр Endianness формата : Big
Режим смешивания : DVD-Video
Продолжительность : 24 м.
Вид битрейта : Постоянный
Битрейт : 192 Кбит/сек
Каналы : 2 канала
Расположение каналов : Front: L R
Частота : 48,0 КГц
Битовая глубина : 16 бит
Метод сжатия : С потерями
Размер потока : 34,2 Мбайт (3%)
Аудио #3
Идентификатор : 189 (0xBD)-130 (0x82)
Формат : AC-3
Формат/Информация : Audio Coding 3
Расширение режима : CM (complete main)
Параметр Endianness формата : Big
Режим смешивания : DVD-Video
Продолжительность : 24 м.
Вид битрейта : Постоянный
Битрейт : 384 Кбит/сек
Каналы : 6 каналов
Расположение каналов : Front: L C R, Side: L R, LFE
Частота : 48,0 КГц
Битовая глубина : 16 бит
Метод сжатия : С потерями
Размер потока : 68,3 Мбайт (7%)
Текст
Идентификатор : 189 (0xBD)-32 (0x20)
Формат : RLE
Формат/Информация : Run-length encoding
Режим смешивания : DVD-Video

Скриншоты меню


Скриншоты фильма

Скриншоты доп. материалов



Релиз: Уважаемые пользователи!Найдите пару минут поблагодарить релизера и высказаться в топике раздачи.Ваше мнение - бальзам для раздающего и пища для ума остальным пользователям.Мои раздачи

_________________
Показать сообщения:    

Текущее время: Сегодня 03:32

Часовой пояс: GMT



Вы не можете начинать темы
Вы не можете отвечать на сообщения
Вы не можете редактировать свои сообщения
Вы не можете удалять свои сообщения
Вы не можете голосовать в опросах
Вы не можете прикреплять файлы к сообщениям
Вы не можете скачивать файлы