Важное объявление!
У Нас Все раздачи мультитрекерные, при нуле пиров в релизах, можете смело вставать на закачку!
Статистика раздачи
Размер:     |    Зарегистрирован:     |    Скачан:     |   
Нет
 
     
 
 
Автор Сообщение

HUNTER

Стаж:
5 лет
Сообщений:
67921

Репутация: 101

[+] [-]
Вне форума [Профиль] [ЛС]

Ад на колёсах / Hell on Wheels
«Blood will be spilled. Lives will be lost. Men will be ruined.»
8.2 / 10 | 8.0 / 10- -Год выпуска: 2011-2012
Страна: Канада, Великобритания
Жанр: драма, вестерн
Продолжительность: ~ 00:45:00 минуты серия
Перевод : Профессиональный многоголосый закадровый (LostFilm) и Профессиональный многоголосый закадровый (Кубик в Кубе) и Профессиональный многоголосый закадровый (AlexFilm) (только 1-2 серии 1 сезона)
Аудио: Русский 2.0 (5.1 - LostFilm), Английский 2.0 и 5.1
Cубтитры: Русские форсированные (1 серия), Русские полные, Английские
Режиссёр: Дэвид Фон Энкен
Сценарий: Джо Гэйтон, Тони Гэйтон
Продюсер: Майкл Фрислев, Джереми Голд, Пол Курта
В ролях: Энсон Маунт (Каллен Бохэнон), Лонни Рашид Линн мл. "Коммон" (Элам Фергюсон), Доминик МакЭллигот (Лили Белл), Колм Мини (Томас "Док" Дюрант), Бен Эслер (Шон МакГиннес), Филип Бурк (Микки МакГиннес), Эдди Спирс (Джозеф Блэк Мун), Том Нунен (преподобный Натаниель Коул), Робин МакЛиви (Ева), Эйприл Телек (Нелл), Джесси Липскомб (Уильям), Джералд Огер (Пауни Киллер), Роберт Молони, Тед Левайн (Дэниэл Джонсон)-Описание: В центре сюжета вестерна — бывший солдат Конфедерации Каллен Бохэнон, решительно настроенный отомстить за изнасилование и убийство своей любимой жены. Он пытается выследить и убить солдат Союза, совершивших это, и его поиски приводят его в Небраску, на одном из участков строительства трансконтинентальной железной дороги-

  • Первая серия собрала у экранов 4,4 миллиона американцев. Число зрителей последующих серий стало падать, и в итоге финал сезона привлёк лишь 2,8 миллиона зрителей.
-Качество: WEB-DL iTunes 720p
Формат: M4V
Видео кодек:AVC
Аудио кодек: AAC
Видео: 1280x720 at 23.976 fps, MPEG-4 AVC, ~3900 kbps avg
Аудио №1: Stereo RUS / Многоголосый закадровый LostFilm
Аудио №2: Stereo RUS / Многоголосый закадровый Кубик в Кубе
Аудио №3: Stereo RUS / Многоголосый закадровый AlexFilm (1-2 серии 1 сезона)
Аудио №4: Stereo ENG / Оригинал
Аудио №5: AC-3 RUS / Многоголосый закадровый LostFilm
Аудио №6: AC-3 ENG / Оригинал
Субтитры №1: Русские форсированные (1 серия)
Субтитры №2: Русские полные
Субтитры №3: Английские
-
Ад на колёсах, Сезон 1
Hell on Wheels, Season 1-
Список эпизодов
1. Pilot / Пилот
A former Confederate soldier journeys to the Transcontinental Railroad to seek vengeance.
2. Immoral Mathematics / Аморальная математика
Cullen fights for his life as he answers for his deadly actions. Lily struggles to survive in the wilderness, as Durant attempts to spin tragedy for political gain.
3. A New Birth of Freedom / Рождение новой свободы
Cullen's search for the sergeant is diverted by an unexpected obstacle. Durant organizes a search party to retrieve the missing Lily Bell.
4. Jamais Je Ne T'oublierai / Никогда тебя не забуду
Cullen gets closer than ever to the sergeant. Durant pursues a hidden agenda while helping Lily recuperate.
5. Bread and Circuses / Хлеба и зрелищ
Durant's answer to the railroad's latest financial problems spurs a bareknuckle brawl between Cullen and Elam.
6. Pride, Pomp and Circumstance / Гордость, помпа и обстоятельства
Durant attempts to end ongoing negotiations with the Cheyenne by challenging them to a competition. Meanwhile Cullen and Elam scramble to prevent bloodshed in town.
7. Revelations / Откровение
With Elam's life in the balance, Cullen must decide how much he's willing to risk. Meanwhile Durant faces financial ruin as Lily confronts the family of her late husband.
8. Derailed / Под откос
Durant dispatches Cullen and Elam on a mission of vengeance. Lily struggles to find her place in Hell on Wheels.
9. Timshel / Ты можешь
It's all hands on deck as Cullen and Lily work to meet the railroad's looming deadline. Elam and Joseph deal with the consequences of their violent mission.
10. God of Chaos / Бог хаоса
Cullen's new life on the railroad is put in jeopardy when he is forced to choose between his past and his future.
101. First Look
AMC's Hell on Wheels, captures the intensity of the West at a time when nothing less than the future of the nation was at stake. 11/6 at 10/9c on AMC
102. About Hell On Wheels
Hear from the cast and crew of AMC's newest series which centers on former Confederate soldier Cullen Bohannon, whose quest for vengeance leads him to the construction of the first transcontinental railroad.
103. Inside Hell On Wheels: Episode 101, "Pilot"
Go inside "Pilot" with the cast and crew behind Hell on Wheels Season 1.
104. Inside Hell On Wheels: Episode 102, "Immoral Mathematics"
Go inside "Immoral Mathematics" with the cast and crew behind Hell on Wheels Season 1.
105. Inside Hell on Wheels: Episode 103, "A New Birth of Freedom"
Go inside "A New Birth of Freedom" with the cast and crew behind Hell on Wheels Season 1.-Ад на колёсах, Сезон 2
Hell on Wheels, Season 2-
Список эпизодов
1. Viva La Mexico / Вива ла Мехико
Cullen adjusts to life after Hell On Wheels. Meanwhile, Durant dispatches Elam to deal with a posse robbing his payroll.
2. Durant, Nebraska / Дюран, Небраска
Durant must confront a dangerous threat to Hell on Wheels. Meanwhile, a horrible crime forces Lily and Elam to strike a deal to bring justice.
3. Slaughterhouse / Бойня
Mickey and Sean's life hangs in the balance as Cullen tries to keep order. Lily and Elam must work together to race to clean up a mess of their own.
4. Scabs / Штрейкбрехеры
After tragedy strikes one of their own, Cullen must diffuse an internal threat to the railroad.
5. The Railroad Job / Дорожная работа
Cullen's past haunts Hell on Wheels, leaving the fate of the railroad hanging in the balance.
6. Purged Away With Blood / Смыть кровью
Durant must save the railroad while fighting for his own life. Meanwhile Cullen fights to save an old friend.
7. The White Spirit / Белый дух
In the aftermath of tragedy, Lily and Cullen struggle to maintain order in Hell on Wheels. Meanwhile, Elam makes plans for the future.
8. The Lord's Day / День господень
A new arrival in Hell on Wheels throws everything into turmoil. Eva finds herself caught between Elam and Mr. Toole.
9. Blood Moon / Blood Moon Rising / Кровавая луна / Восход кровавой луны
As the railroad celebrates a victory, Cullen prepares for battle.
101. Inside Hell On Wheels: Where Season 1 Left Off / The Cast On Season 2
Anson Mount and the cast of Hell on Wheels analyze the unanswered questions from season 1 and give us a taste of what's in store for season 2.--

Технические данные сериала

iTunes MetaTag

Код:
Sort TV Show: Hell On Wheels
Sort Album: Hell On Wheels, Season 1
Sort Name: Pilot
XID: amc:vendor_id:AMC_HELLONWHEELS_101
contentID: 476764417
Copyright: © 2011 Entertainment One Television USA Inc.
Rating: 13
Long Description: A former Confederate soldier journeys to the Transcontinental Railroad to seek vengeance.
Description: A former Confederate soldier journeys to the Transcontinental Railroad to seek vengeance.
TV Season: 1
TV Episode ID: 1
TV Network: AMC
TV Episode #: 1
TV Show: Hell On Wheels
Disk #: 1/1
Track #: 1/0
Release Date: 2011-11-06T07:00:00Z
Genre: Drama
Album: Ад на колесах, Сезон 1
Album Artist: Hell On Wheels
Artist: Hell On Wheels
Name: Pilot

Mediainfo 720p S01E001

Код:
* * * MediaInspector for Mac - Version 2.0, build 896
* * * ©2012 by Diego Massanti
* * * MediaInfo Lib by Jerome Martinez
* * * Raw File Report for 01 Pilot (HD).m4v
General
Complete name                    : /Users/yvu/Music/iTunes/iTunes Media/TV Shows/Hell On Wheels/Season 1/01 Pilot (HD).m4v
Format                           : MPEG-4
Codec ID                         : M4V
File size                        : 1.69 GiB
Duration                         : 45mn 7s
Overall bit rate                 : 5 364 Kbps
Movie name                       : Pilot
Album                            : ?? ?? ???????, ????? 1
Album/Performer                  : Hell On Wheels
Part/Position                    : 1
Part/Total                       : 1
Track name/Position              : 1
Track name/Total                 : 0
Performer                        : Hell On Wheels
Genre                            : Drama
Recorded date                    : UTC 2011-11-06 07:00:00
Encoded date                     : UTC 2012-08-17 12:06:18
Tagged date                      : UTC 2012-08-17 12:13:37
Copyright                        : � 2011 Entertainment One Television USA Inc.
Cover                            : Yes
tvsh                             : Hell On Wheels
tvnn                             : AMC
tven                             : 1
tvsn                             : 1
tves                             : 1
sonm                             : Pilot
soal                             : Hell On Wheels, Season 1
sosn                             : Hell On Wheels
desc                             : A former Confederate soldier journeys to the Transcontinental Railroad to seek vengeance.
ldes                             : A former Confederate soldier journeys to the Transcontinental Railroad to seek vengeance.
hdvd                             : 1
stik                             : 10
rtng                             : 0
cnID                             : 476764417
xid                              : amc:vendor_id:AMC_HELLONWHEELS_101
iTunEXTC                         : us-tv|TV-14|500|
Video
ID                               : 1
Format                           : AVC
Format/Info                      : Advanced Video Codec
Format profile                   : High@L3.1
Format settings, CABAC           : No
Format settings, ReFrames        : 2 frames
Codec ID                         : avc1
Codec ID/Info                    : Advanced Video Coding
Duration                         : 45mn 1s
Bit rate mode                    : Variable
Bit rate                         : 3 941 Kbps
Width                            : 1 280 pixels
Height                           : 720 pixels
Display aspect ratio             : 16:9
Frame rate mode                  : Variable
Frame rate                       : 23.976 fps
Minimum frame rate               : 23.810 fps
Maximum frame rate               : 24.390 fps
Color space                      : YUV
Chroma subsampling               : 4:2:0
Bit depth                        : 8 bits
Scan type                        : Progressive
Bits/(Pixel*Frame)               : 0.178
Stream size                      : 1.24 GiB (73%)
Language                         : English
Encoded date                     : UTC 2012-08-17 12:06:18
Tagged date                      : UTC 2012-08-17 12:07:49
Color primaries                  : BT.709-5, BT.1361, IEC 61966-2-4, SMPTE RP177
Transfer characteristics         : BT.709-5, BT.1361
Matrix coefficients              : BT.709-5, BT.1361, IEC 61966-2-4 709, SMPTE RP177
Audio #1
ID                               : 2
Format                           : AAC
Format/Info                      : Advanced Audio Codec
Format profile                   : LC
Codec ID                         : 40
Duration                         : 45mn 2s
Bit rate mode                    : Variable
Bit rate                         : 164 Kbps
Maximum bit rate                 : 251 Kbps
Channel(s)                       : 2 channels
Channel positions                : Front: L R
Sampling rate                    : 48.0 KHz
Compression mode                 : Lossy
Stream size                      : 52.9 MiB (3%)
Language                         : Russian
Encoded date                     : UTC 2012-08-17 12:06:18
Tagged date                      : UTC 2012-08-17 12:06:19
Audio #2
ID                               : 3
Format                           : AAC
Format/Info                      : Advanced Audio Codec
Format profile                   : LC
Codec ID                         : 40
Duration                         : 45mn 7s
Bit rate mode                    : Variable
Bit rate                         : 164 Kbps
Maximum bit rate                 : 249 Kbps
Channel(s)                       : 2 channels
Channel positions                : Front: L R
Sampling rate                    : 48.0 KHz
Compression mode                 : Lossy
Stream size                      : 53.1 MiB (3%)
Language                         : Russian
Encoded date                     : UTC 2012-08-17 12:06:18
Tagged date                      : UTC 2012-08-17 12:07:50
Audio #3
ID                               : 4
Format                           : AAC
Format/Info                      : Advanced Audio Codec
Format profile                   : LC
Codec ID                         : 40
Duration                         : 45mn 2s
Bit rate mode                    : Variable
Bit rate                         : 164 Kbps
Maximum bit rate                 : 247 Kbps
Channel(s)                       : 2 channels
Channel positions                : Front: L R
Sampling rate                    : 48.0 KHz
Compression mode                 : Lossy
Stream size                      : 53.0 MiB (3%)
Language                         : Russian
Encoded date                     : UTC 2012-08-17 12:06:18
Tagged date                      : UTC 2012-08-17 12:07:51
Audio #4
ID                               : 5
Format                           : AAC
Format/Info                      : Advanced Audio Codec
Format profile                   : LC
Codec ID                         : 40
Duration                         : 45mn 1s
Bit rate mode                    : Variable
Bit rate                         : 157 Kbps
Maximum bit rate                 : 253 Kbps
Channel(s)                       : 2 channels
Channel positions                : Front: L R
Sampling rate                    : 48.0 KHz
Compression mode                 : Lossy
Stream size                      : 50.5 MiB (3%)
Language                         : English
Encoded date                     : UTC 2012-08-17 12:06:18
Tagged date                      : UTC 2012-08-17 12:07:55
Audio #5
ID                               : 6
Format                           : AC-3
Format/Info                      : Audio Coding 3
Mode extension                   : CM (complete main)
Codec ID                         : ac-3
Duration                         : 45mn 1s
Bit rate mode                    : Constant
Bit rate                         : 384 Kbps
Channel(s)                       : 6 channels
Channel positions                : Front: L C R, Side: L R, LFE
Sampling rate                    : 48.0 KHz
Bit depth                        : 16 bits
Compression mode                 : Lossy
Stream size                      : 124 MiB (7%)
Language                         : Russian
Encoded date                     : UTC 2012-08-17 12:06:18
Tagged date                      : UTC 2012-08-17 12:07:49
Audio #6
ID                               : 7
Format                           : AC-3
Format/Info                      : Audio Coding 3
Mode extension                   : CM (complete main)
Codec ID                         : ac-3
Duration                         : 45mn 1s
Bit rate mode                    : Constant
Bit rate                         : 384 Kbps
Channel(s)                       : 6 channels
Channel positions                : Front: L C R, Side: L R, LFE
Sampling rate                    : 48.0 KHz
Bit depth                        : 16 bits
Compression mode                 : Lossy
Stream size                      : 124 MiB (7%)
Language                         : English
Encoded date                     : UTC 2012-08-17 12:06:18
Tagged date                      : UTC 2012-08-17 12:07:55
Text #1
ID                               : 8
Format                           : Timed text
Muxing mode                      : sbtl
Codec ID                         : tx3g
Duration                         : 28mn 59s
Bit rate mode                    : Variable
Bit rate                         : 5 bps
Stream size                      : 1 000 Bytes (0%)
Language                         : Russian
Encoded date                     : UTC 2012-08-17 12:06:18
Tagged date                      : UTC 2012-08-17 12:07:55
Text #2
ID                               : 9
Format                           : Timed text
Muxing mode                      : sbtl
Codec ID                         : tx3g
Duration                         : 44mn 11s
Bit rate mode                    : Variable
Bit rate                         : 68 bps
Stream size                      : 22.1 KiB (0%)
Language                         : Russian
Encoded date                     : UTC 2012-08-17 12:06:18
Tagged date                      : UTC 2012-08-17 12:07:55
Text #3
ID                               : 10
Format                           : Timed text
Muxing mode                      : sbtl
Codec ID                         : tx3g
Duration                         : 44mn 9s
Bit rate mode                    : Variable
Bit rate                         : 52 bps
Stream size                      : 16.7 KiB (0%)
Language                         : English
Encoded date                     : UTC 2012-08-17 12:06:18
Tagged date                      : UTC 2012-08-17 12:07:55

Скриншоты 720p

-
Релиз подготовлен для просмотра на Apple TV, iPad.
Для просмотра данного релиза на компьютере с ОС Windows рекомендуется использовать VLC media player-ВНИМАНИЕ! РАЗДАЧА ВЕДЕТСЯ ПУТЕМ ДОБАВЛЕНИЯ НОВЫХ СЕРИЙ! ПРИ ОБНОВЛЕНИИ РАЗДАЧИ НУЖНО ОБНОВИТЬ ТОЛЬКО ТОРРЕНТ ФАЙЛ, УКАЗАВ ТУЖЕ ПАПКУ, ГДЕ ЛЕЖАТ ПРЕДЫДУЩИЕ СЕРИИ

Инструкция по замене старого торрент файла на новый


Внимание! Раздача ведётся путём добавления новых серий, при каждом добавлении создаётся новый торрент. Чтобы начать докачку новой серии, пользователям необходимо сделать следующее:
(1) остановить скачивание,
(2) удалить старый торрент у себя из клиента (старые серии удалять не надо),
(3) скачать новый торрент и запустить его у себя в клиенте вместо старого, при этом указать клиенту путь в старую папку куда и должно происходить скачивание новых серий.
Ваш клиент при этом должен произвести хеширование (проверку) старой папки (если не производит сам - помогите ему сделать это), и будет докачивать только те серии которых у вас ещё нет. Старые серии при этом не удаляются, а продолжают раздаваться!
Если вы уже удалили старые серии, то предотвратить повторную закачку старых серий можно, отжав галочку в соответствующих местах при запуске нового торрента. По возможности, желательно не удалять старые серии как можно дольше чтобы релизёр не столько продолжал раздавать старые серии, а смог сконцентрироваться на новых.
В настоящий момент раздача содержит весь 1 и 2 сезоны.-

_________________
Показать сообщения:    

Текущее время: Сегодня 18:55

Часовой пояс: GMT



Вы не можете начинать темы
Вы не можете отвечать на сообщения
Вы не можете редактировать свои сообщения
Вы не можете удалять свои сообщения
Вы не можете голосовать в опросах
Вы не можете прикреплять файлы к сообщениям
Вы не можете скачивать файлы