Ивановский Торрент трекер
Яндекс.Погода
 

[Цитировать]
HUNTER

Ад над облаками
Дата/Год выпуска: 1983
Страна: СССР
Жанр: Документальный фильм
Продолжительность: 00:30:05
Перевод: Не требуется
Русские субтитры: нет
Оригинальная аудиодорожка: русский
Режиссер: Шишков В.
Производство: Камчатское ТВ
Описание: Уникальный фильм об извержении Ключевского вулкана, самого высокого и наиболее активного в Евразии. Извержение вулкана произошло на востоке
Сэмпл: http://multi-up.com/1044025
качество: VHSRip
формат: AVI
Видео: 720x576 (1.25:1), 25 fps, DivX Codec 5.x or 6.x ~2399 kbps avg, 0.23 bit/pixel
Аудио: 44.100 kHz, MPEG Layer 3, 2 ch, ~192.00 kbps avg

MediaInfo

ОбщееПолное имя : D:\TEMP TORRENT\Ад над облаками\Ad_nad_oblakami.aviФормат : AVIФормат/Информация : Audio Video InterleaveРазмер файла : 560 МбайтПродолжительность : 30 м.Общий поток : 2604 Кбит/секПрограмма кодирования : MEncoder SVN-r33883(20110719-gcc4.5.2)Библиотека кодирования : MPlayer
ВидеоИдентификатор : 0Формат : MPEG-4 VisualПрофиль формата : Simple@L1Параметр BVOP формата : НетПараметр QPel формата : НетПараметр GMC формата : Без точки переходаПараметр матрицы формата : Default (H.263)Идентификатор кодека : DX50Идентификатор кодека/Подсказка : DivX 5Продолжительность : 30 м.Битрейт : 2400 Кбит/секШирина : 720 пикселейВысота : 576 пикселейСоотношение сторон : 5:4Частота кадров : 25,000 кадров/секСтандарт вещания : PALЦветовое пространство : YUVСубдискретизация насыщенности : 4:2:0Битовая глубина : 8 битТип развёртки : ПрогрессивнаяМетод сжатия : С потерямиБит/(Пиксели*Кадры) : 0.231Размер потока : 516 Мбайт (92%)Библиотека кодирования : Lavc53.8.0
АудиоИдентификатор : 1Формат : MPEG AudioВерсия формата : Version 1Профиль формата : Layer 3Режим : Joint stereoРасширение режима : MS StereoИдентификатор кодека : 55Идентификатор кодека/Подсказка : MP3Продолжительность : 30 м.Вид битрейта : ПостоянныйБитрейт : 192 Кбит/секКаналы : 2 каналаЧастота : 44,1 КГцМетод сжатия : С потерямиРазмер потока : 41,3 Мбайт (7%)Выравнивание : Соединение по промежуткамПродолжительность промежутка : 26 мс. (0,65 видеокадр)Время предзагрузки промежутка : 522 мс.

Скриншоты

Показать сообщения:    

Текущее время: 26-Сен 13:45

Часовой пояс: UTC - 1


Вы не можете начинать темы
Вы не можете отвечать на сообщения
Вы не можете редактировать свои сообщения
Вы не можете удалять свои сообщения
Вы не можете голосовать в опросах
Вы не можете прикреплять файлы к сообщениям
Вы не можете скачивать файлы

!ВНИМАНИЕ!
Сайт не предоставляет электронные версии произведений, а занимается лишь коллекционированием и каталогизацией ссылок, присылаемых и публикуемых на форуме нашими читателями. Если вы являетесь правообладателем какого-либо представленного материала и не желаете, чтобы ссылка на него находилась в нашем каталоге, свяжитесь с нами, и мы незамедлительно удалим ее. Файлы для обмена на трекере предоставлены пользователями сайта, и администрация не несет ответственности за их содержание. Просьба не заливать файлы, защищенные авторскими правами, а также файлы нелегального содержания!