Важное объявление!
У Нас Все раздачи мультитрекерные, при нуле пиров в релизах, можете смело вставать на закачку!
 
Автор Сообщение

HUNTER

Стаж:
4 года 6 месяцев
Сообщений:
61006

Репутация: 101

[+] [-]
Вне форума [Профиль] [ЛС]

Адская школа / Hell High / Raging Fury
Страна: США
Жанр: слэшер
Год выпуска: 1989
Продолжительность: 01:23:46
Перевод: Авторский (одноголосый закадровый) Дольский
Cубтитры: нет
Оригинальная аудиодорожка: английский
Режиссер: Дуглас Гроссман / Douglas Grossman
В ролях: Кристофер Страйкер, Морин Муни, Кристофер Казинс, Милли Прециозо, Джейсон Брилл, Kathryn Rossetter, Дж. Р. Хорн, Дэниэл Бир, Victoria Andahazy, Amy Beth Erenrich
Описание: Маленькая девочка, звать которую Брук, заходит в крошечный сарай и начинает в нём играться с куклами. Вдруг она кого-то услышала и спряталась. Это были двое подростков (парень и девушка), которые собрались заниматься там сексом. Точнее сказать, девушка здесь это делать не собиралась и в итоге сказала своему бойфренду подыскать более романтичное место. Тот обозлился и в сердцах сломал любимую куклу девочки. Парочка вышла из сарая, уселась в мотоцикл и стала постепенно отъезжать. Брук очень расстроилась и решила по-детски отомстить: она собрала в ведёрце зеленоватую жижу и окатила ею уже набравших скорость парня и девицу. Те потеряли управление и в результате столкновения вылетели из мотоцикла прямо на торчащие откуда-то палки – их проткнуло насквозь. Девочка всё это видела и в ужасе убежала прочь.Прошло 18 лет, и она уже выросла в учительницу по анатомии, которая проводила занятия в средней школе. Её ученики и ученицы были просто отвратительны: всё время мешали ей вести уроки, то и дело дурачась, занимаясь своими делами и откровенно насмехаясь над ней. Вот и в последний раз они довели её до слёз – особенно паренёк – заводила команды по американскому футболу. Мало того, этот парень сподвиг своих друзей (двух ребят и девушку) разыграть училку: они приехали к её дому и набрали ту самую зелёную жижу, что была в прологе, надели маски, забрались на крышу её дома и стали топать по ней ногами. Внезапный стук на крыше заставил мисс Брук здорово напугаться, а когда она попыталась выйти из дома – её окатили грязью. Начавшееся безобразие прекратилось лишь благодаря тому, что к женщине приехала её подруга. Но как только она уехала, юные отморозки принялись вновь творить своё чёрное дело. Один из ребят дошёл до того, что пробрался к учительнице в спальню, и когда та открыла глаза, то сразу потеряла сознание, увидев страшную маску. Парень-извращенец решил воспользоваться ситуацией и сексуально поглумиться над преподом, но в итоге был остановлен его приятелем, который стал взывать к его совести. Они оба схлестнулись, и в этот момент очнулась мисс Брук, которая неожиданно для всех выбросилась из окна. Подошедший к ней толстяк констатировал, что наступила смерть – хотя упала она с небольшой высоты. Подростки испугались и убежали, думая, что оказались замешаны в смерти. На деле же женщина вовсе не умерла – она осталась жива, но её “крыша” поехала, и она решила отомстить юным подонкам. Благо она ещё не забыла, что сотворила 18 лет тому назад..Малоизвестный “слэшер” конца 80-х с весьма натянутым сюжетом и забавным развитием. Как и положено у дурацких фильмов, первая его половина отведена показам обнажённых женских телёс (особенно выделю сцену в душе с училкой), а во второй начинается подобие мочилова, и некоторые из убийств сделаны очень даже ничего. Из них отмечу смерть от карандаша. Справедливости ради, эта самая вторая часть начинается в последние минут 20-25, а время до этого занято развитием завязки. В связи с этим, когда всё-таки начнётся беготня, то это будет происходить как-то сумбурно и быстро. Не для массового зрителя.
Доп. информация: Диск из собственной коллекции.
Бонусы: Коментарии, интервью, трейлеры.
Сэмпл: http://sendfile.su/1155403
Тип релиза: DVD9 (Custom)
Контейнер: DVD-Video
Видео: NTSC 4:3 (720x480) VBR
Аудио: Russian (Dolby AC3, 192 Кбит/сек, 2 ch)
Аудио 2: English (Dolby AC3, 192 Кбит/сек, 2 ch)
Аудио 3: English (Dolby AC3, 192 Кбит/сек, 2 ch) коментарии
Аудио 4: English (Dolby AC3, 192 Кбит/сек, 2 ch) коментарии

DVDInfo

Size: 5.11 Gb ( 5 356 926 KBytes ) - DVD-9
Enabled regions: 1, 2, 3, 4, 5, 6
VTS_01 :
Play Length: 01:23:41+00:00:20+00:05:06+00:01:30+00:01:50+00:02:54+00:19:28+00:12:44+00:01:29+00:00:04
Video: NTSC 4:3 (720x480) VBR
Audio:
Russian (Dolby AC3, 2 ch)
English (Dolby AC3, 2 ch)
English (Dolby AC3, 2 ch)
English (Dolby AC3, 2 ch)
VTS_02 :
Play Length: 00:02:20
Video: NTSC 16:9 (720x480) VBR, Auto Pan&Scan
Audio:
English (Dolby AC3, 2 ch)
Menu Video:
NTSC 4:3 (720x480) VBR
Menu Subtitles:
Not specified
Menu English Language Unit :
Root Menu

MediaInfo

Общее
Полное имя : J:\Hell High_1989\VIDEO_TS\VTS_01_1.VOB
Формат : MPEG-PS
Размер файла : 1024 Мбайт
Продолжительность : 16 м.
Режим общего битрейта : Переменный
Общий поток : 8603 Кбит/сек
Видео
Идентификатор : 224 (0xE0)
Формат : MPEG Video
Версия формата : Version 2
Профиль формата : Main@Main
Параметр BVOP формата : Да
Параметр матрицы формата : Выборочная
Параметр GOP формата : M=3, N=15
Продолжительность : 16 м.
Вид битрейта : Переменный
Битрейт : 7663 Кбит/сек
Максимальный битрейт : 8000 Кбит/сек
Ширина : 720 пикселей
Высота : 480 пикселей
Соотношение сторон : 4:3
Частота кадров : 29,970 кадров/сек
Стандарт вещания : NTSC
Цветовое пространство : YUV
Субдискретизация насыщенности : 4:2:0
Битовая глубина : 8 бит
Тип развёртки : Чересстрочная
Порядок развёртки : Нижнее поле первое
Метод сжатия : С потерями
Бит/(Пиксели*Кадры) : 0.740
Размер потока : 912 Мбайт (89%)
Основные цвета : BT.601 NTSC
Характеристики трансфера : BT.601
Коэффициенты матрицы : BT.601
Аудио #1
Идентификатор : 189 (0xBD)-128 (0x80)
Формат : AC-3
Формат/Информация : Audio Coding 3
Расширение режима : CM (complete main)
Параметр Endianness формата : Big
Режим смешивания : DVD-Video
Продолжительность : 16 м.
Вид битрейта : Постоянный
Битрейт : 192 Кбит/сек
Каналы : 2 канала
Расположение каналов : Front: L R
Частота : 48,0 КГц
Битовая глубина : 16 бит
Метод сжатия : С потерями
Размер потока : 22,9 Мбайт (2%)
Аудио #2
Идентификатор : 189 (0xBD)-129 (0x81)
Формат : AC-3
Формат/Информация : Audio Coding 3
Расширение режима : CM (complete main)
Параметр Endianness формата : Big
Режим смешивания : DVD-Video
Продолжительность : 5 с. 88 мс.
Вид битрейта : Постоянный
Битрейт : 192 Кбит/сек
Каналы : 2 канала
Расположение каналов : Front: L R
Частота : 48,0 КГц
Битовая глубина : 16 бит
Метод сжатия : С потерями
Размер потока : 119 Кбайт (0%)
Аудио #3
Идентификатор : 189 (0xBD)-130 (0x82)
Формат : AC-3
Формат/Информация : Audio Coding 3
Расширение режима : CM (complete main)
Параметр Endianness формата : Big
Режим смешивания : DVD-Video
Продолжительность : 5 с. 88 мс.
Вид битрейта : Постоянный
Битрейт : 192 Кбит/сек
Каналы : 2 канала
Расположение каналов : Front: L R
Частота : 48,0 КГц
Битовая глубина : 16 бит
Метод сжатия : С потерями
Размер потока : 119 Кбайт (0%)
Аудио #4
Идентификатор : 189 (0xBD)-131 (0x83)
Формат : AC-3
Формат/Информация : Audio Coding 3
Расширение режима : CM (complete main)
Параметр Endianness формата : Big
Режим смешивания : DVD-Video
Продолжительность : 5 с. 88 мс.
Вид битрейта : Постоянный
Битрейт : 192 Кбит/сек
Каналы : 2 канала
Расположение каналов : Front: L R
Частота : 48,0 КГц
Битовая глубина : 16 бит
Метод сжатия : С потерями
Размер потока : 119 Кбайт (0%)
Меню

Постеры

Скриншоты меню

Скриншоты


_________________
Показать сообщения:    

Текущее время: Сегодня 01:13

Часовой пояс: GMT



Вы не можете начинать темы
Вы не можете отвечать на сообщения
Вы не можете редактировать свои сообщения
Вы не можете удалять свои сообщения
Вы не можете голосовать в опросах
Вы не можете прикреплять файлы к сообщениям
Вы не можете скачивать файлы
Наши партнеры: интернет магазин Ивановского трикотажа textilla.ru