Адская тварь / Асвонг / Чудовище / The Unearthing / Aswang (Рай Мартин / Wrye Martin, Барри Полтерманн / Barry Poltermann) [1994, США, ужасы, DVD9 (Custom)] VO (Переводчик не опознан) + Sub Eng + Original Eng :: Ивановский Торрент трекер
Важное объявление!
У Нас Все раздачи мультитрекерные, при нуле пиров в релизах, можете смело вставать на закачку!
Статистика раздачи
Размер:     |    Зарегистрирован:     |    Скачан:     |   
Нет
 
     
 
 
Автор Сообщение

HUNTER

Стаж:
4 года 11 месяцев
Сообщений:
66112

Репутация: 101

[+] [-]
Вне форума [Профиль] [ЛС]

Адская тварь / Асвонг / Чудовище / The Unearthing / Aswang
Страна: США
Студия: Prism Pictures
Жанр: ужасы
Год выпуска: 1994
Продолжительность: 01:22:20
Перевод: Одноголосый закадровый Переводчик не опознан
Cубтитры: английские
Оригинальная аудиодорожка: английский
Режиссер: Рай Мартин / Wrye Martin, Барри Полтерманн / Barry Poltermann
В ролях: Норман Мозес, Флора Колье, Тина Она Паукстелия, Джон Кишлин
Описание: Несмотря на протесты своего друга, молодая беременная женщина Катрина знакомится с бездетной парой, Питером и Джанин Налл. Те не могут иметь детей, и Питер очень переживает по поводу того, кому останутся его миллионы после их смерти. В обмен на большие деньги Катрина соглашается родить для них ребенка. Она переезжает в их имение и знакомится с прикованной к инвалидной коляске матерью Питера Оливией и служанкой Купид. Она также узнает, что у Питера есть сестра Клэр. Но она немного не дружит с головой, поэтому живет отдельно в хижине за домом. Вскоре Катрина знакомится с доктором Роджером Харпером, который несет странный кокон. Он говорит, что нашел его, а также несколько крошечных скелетов на территории поместья Наллов. Катрина приглашает доктора отобедать с семейством. После ужина Питер показывает доктору и девушке картины, привезенные им с Филиппин, где он родился и рос. На одной из них изображен монстр с огромным языком. Дома доктор Харпер находит репродукцию этой картины в одной из своих книг. Это существо зовется Aswang, филиппинский вампир, питающийся кровью не рожденных детей. В ужасе от посетившей его мысли, чьи кости он нашел в саду, доктор Харпер собирается предупредить Катрину. Но в этот момент на него кто-то нападает. Тем временем Купид несет миссис Налл на крышу, где из ее рта высовывается длинный язык, направляющийся к окну комнаты Катрины…
Любительский фильм, снятый недавними студентами киноинститута за 70 тысяч долларов. Режиссеры предпочитают название «Aswang». Чувствуется влияние филиппинского режиссера Эдди Ромеро. Источником вдохновения для режиссеров послужил фильм Сэма Райми «Зловещие мертвецы» (1982).
Доп. информация: Русская звуковая дорожка взята с этой раздачи http://rutracker.org/forum/viewtopic.php?t=3111686 автору большое спасибо.
За синхронизацию огромное спасибо Нордер.
При пересборе двд были использованы программы:
PgcDemux - разделение компонентов диска на файлы
Muxman - мультиплексирование и авторинг DVD
VobBlanker - реавторинг DVD

Скрин завершения проекта

Бонусы: Док.фильм, трейлеры, невошедшие сцены, галерея, коментарии.
Сэмпл: http://sendfile.su/1106028
Тип релиза: DVD9 (Custom)
Контейнер: DVD-Video
Видео: NTSC 16:9 (720x480) VBR Auto Pan&Scan
Аудио: Russian (Dolby AC3, 448 Кбит/сек, 6 ch)
Аудио 2: English (Dolby AC3, 448 Кбит/сек, 2 ch)
Аудио 3: English (Dolby AC3, 448 Кбит/сек, 6 ch)
Аудио 4: English (Dolby AC3, 448 Кбит/сек, 2 ch) (комментарии)
Аудио 4: English (Dolby AC3, 448 Кбит/сек, 2 ch) (комментарии)
Формат субтитров: prerendered (DVD/IDX+SUB)

DVDInfo

Size: 6.57 Gb ( 6 893 316 KBytes ) - DVD-9
Enabled regions: 1, 2, 3, 4, 5, 6, 7, 8
VTS_01 :
Play Length: 01:22:20
Video: NTSC 16:9 (720x480) VBR, Auto Pan&Scan
Audio:
Russian (Dolby AC3, 6 ch)
English (Dolby AC3, 2 ch)
English (Dolby AC3, 6 ch)
English (Dolby AC3, 2 ch)
English (Dolby AC3, 2 ch)
Subtitles:
English
VTS_02 :
Play Length: 00:00:52
Video: NTSC 16:9 (720x480) VBR, Auto Pan&Scan
Audio:
English (LinearPCM, 2 ch)
VTS_03 :
Play Length: 00:01:06
Video: NTSC 4:3 (720x480) VBR
Audio:
English (LinearPCM, 2 ch)
Subtitles:
Not specified
VTS_04 :
Play Length: 00:00:15
Video: NTSC 16:9 (720x480) VBR, Auto Pan&Scan
Audio:
English (LinearPCM, 2 ch)
English (LinearPCM, 2 ch)
English (LinearPCM, 2 ch)
English (LinearPCM, 2 ch)
Subtitles:
English
VTS_05 :
Play Length: 00:01:04
Video: NTSC 4:3 (720x480) VBR
Audio:
English (LinearPCM, 2 ch)
Subtitles:
Not specified
VTS_06 :
Play Length: 00:27:53
Video: NTSC 4:3 (720x480) VBR
Audio:
English (Dolby AC3, 2 ch)
VTS_07 :
Play Length: 00:01:36
Video: NTSC 4:3 (720x480) VBR
Audio:
English (LinearPCM, 2 ch)
VTS_08 :
Play Length: 00:02:00
Video: NTSC 4:3 (720x480) VBR
Audio:
English (LinearPCM, 2 ch)
VTS_09 :
Play Length: 00:02:02
Video: NTSC 4:3 (720x480) VBR
Audio:
English (LinearPCM, 2 ch)
VTS_10 :
Play Length: 00:06:15
Video: NTSC 4:3 (720x480) VBR
Audio:
English (Dolby AC3, 2 ch)
VTS_11 :
Play Length: 00:03:30
Video: NTSC 4:3 (720x480) VBR
Audio:
English (LinearPCM, 2 ch)
VTS_12 :
Play Length: 00:03:15
Video: NTSC 4:3 (720x480) VBR
Audio:
English (LinearPCM, 2 ch)
VTS_13 :
Play Length: 00:01:02
Video: NTSC 4:3 (720x480) VBR
Audio:
English (LinearPCM, 2 ch)
Subtitles:
Not specified
VTS_14 :
Play Length: 00:01:02
Video: NTSC 4:3 (720x480) VBR
Audio:
English (LinearPCM, 2 ch)
Subtitles:
Not specified
VTS_15 :
Play Length: 00:01:02
Video: NTSC 4:3 (720x480) VBR
Audio:
English (LinearPCM, 2 ch)
Subtitles:
Not specified
VTS_16 :
Play Length: 00:02:28
Video: NTSC 4:3 (720x480) VBR
Audio:
English (LinearPCM, 2 ch)
VTS_17 :
Play Length: 00:02:31
Video: NTSC 16:9 (720x480) VBR, Auto Pan&Scan
Audio:
English (Dolby AC3, 2 ch)
Menu Video:
NTSC 4:3 (720x480) VBR
Menu Subtitles:
Not specified
Menu English Language Unit :
Root Menu
Angle menu
Chapter (PTT) Menu

MediaInfo

Общее
Полное имя : M:\Aswang_1994\VIDEO_TS\VTS_01_1.VOB
Формат : MPEG-PS
Размер файла : 1024 Мбайт
Продолжительность : 18 м.
Режим общего битрейта : Переменный
Общий поток : 7602 Кбит/сек
Видео
Идентификатор : 224 (0xE0)
Формат : MPEG Video
Версия формата : Version 2
Профиль формата : Main@Main
Параметр BVOP формата : Да
Параметр матрицы формата : Выборочная
Параметр GOP формата : M=3, N=15
Продолжительность : 18 м.
Вид битрейта : Переменный
Максимальный битрейт : 6000 Кбит/сек
Ширина : 720 пикселей
Высота : 480 пикселей
Соотношение сторон : 16:9
Частота кадров : 29,970 кадров/сек
Стандарт вещания : NTSC
Цветовое пространство : YUV
Субдискретизация насыщенности : 4:2:0
Битовая глубина : 8 бит
Тип развёртки : Чересстрочная
Порядок развёртки : Верхнее поле первое
Метод сжатия : С потерями
Аудио #1
Идентификатор : 189 (0xBD)-128 (0x80)
Формат : AC-3
Формат/Информация : Audio Coding 3
Расширение режима : CM (complete main)
Параметр Endianness формата : Big
Режим смешивания : DVD-Video
Продолжительность : 18 м.
Вид битрейта : Постоянный
Битрейт : 448 Кбит/сек
Каналы : 6 каналов
Расположение каналов : Front: L C R, Side: L R, LFE
Частота : 48,0 КГц
Битовая глубина : 16 бит
Метод сжатия : С потерями
Задержка видео : -66 мс.
Размер потока : 60,3 Мбайт (6%)
Аудио #2
Идентификатор : 189 (0xBD)-129 (0x81)
Формат : AC-3
Формат/Информация : Audio Coding 3
Расширение режима : CM (complete main)
Параметр Endianness формата : Big
Режим смешивания : DVD-Video
Продолжительность : 18 м.
Вид битрейта : Постоянный
Битрейт : 448 Кбит/сек
Каналы : 2 канала
Расположение каналов : Front: L R
Частота : 48,0 КГц
Битовая глубина : 16 бит
Метод сжатия : С потерями
Задержка видео : -66 мс.
Размер потока : 60,3 Мбайт (6%)
Аудио #3
Идентификатор : 189 (0xBD)-130 (0x82)
Формат : AC-3
Формат/Информация : Audio Coding 3
Расширение режима : CM (complete main)
Параметр Endianness формата : Big
Режим смешивания : DVD-Video
Продолжительность : 18 м.
Вид битрейта : Постоянный
Битрейт : 448 Кбит/сек
Каналы : 6 каналов
Расположение каналов : Front: L C R, Side: L R, LFE
Частота : 48,0 КГц
Битовая глубина : 16 бит
Метод сжатия : С потерями
Задержка видео : -66 мс.
Размер потока : 60,3 Мбайт (6%)
Аудио #4
Идентификатор : 189 (0xBD)-131 (0x83)
Формат : AC-3
Формат/Информация : Audio Coding 3
Расширение режима : CM (complete main)
Параметр Endianness формата : Big
Режим смешивания : DVD-Video
Продолжительность : 18 м.
Вид битрейта : Постоянный
Битрейт : 448 Кбит/сек
Каналы : 2 канала
Расположение каналов : Front: L R
Частота : 48,0 КГц
Битовая глубина : 16 бит
Метод сжатия : С потерями
Задержка видео : -66 мс.
Размер потока : 60,3 Мбайт (6%)
Аудио #5
Идентификатор : 189 (0xBD)-132 (0x84)
Формат : AC-3
Формат/Информация : Audio Coding 3
Расширение режима : CM (complete main)
Параметр Endianness формата : Big
Режим смешивания : DVD-Video
Продолжительность : 18 м.
Вид битрейта : Постоянный
Битрейт : 448 Кбит/сек
Каналы : 2 канала
Расположение каналов : Front: L R
Частота : 48,0 КГц
Битовая глубина : 16 бит
Метод сжатия : С потерями
Задержка видео : -66 мс.
Размер потока : 60,3 Мбайт (6%)
Аудио #6
Идентификатор : 216 (0xD8)
Формат : MPEG Audio
Метод сжатия : С потерями
Меню

Постеры и обложки

Скриншоты меню


_________________
Показать сообщения:    

Текущее время: Сегодня 19:31

Часовой пояс: GMT



Вы не можете начинать темы
Вы не можете отвечать на сообщения
Вы не можете редактировать свои сообщения
Вы не можете удалять свои сообщения
Вы не можете голосовать в опросах
Вы не можете прикреплять файлы к сообщениям
Вы не можете скачивать файлы