Важное объявление!
У Нас Все раздачи мультитрекерные, при нуле пиров в релизах, можете смело вставать на закачку!
 
Автор Сообщение

HUNTER

Стаж:
4 года 7 месяцев
Сообщений:
61546

Репутация: 101

[+] [-]
Вне форума [Профиль] [ЛС]

Адреналин / Crank [Extended cut]-
Год выпуска: 2006
Страна: США
Жанр: боевик, триллер, криминал
Продолжительность: 01:34:10
Перевод: Профессиональный (полное дублирование)
+ Профессиональный (двухголосый, закадровый) П.Гланц и И.Королева
+ Одноголосый закадровый М.Чадов
Оригинальная звуковая дорожка: English
Субтитры: Russian (forced), Russian, English-Режиссер: Марк Невелдайн / Mark Neveldine, Брайан Тейлор / Brian Taylor
В ролях: Джейсон Стэтхэм, Эми Смарт, Эфрен Рамирез, Jose Pablo Cantillo, Дуайт Йокем, Карлос Санс, Рено Уилсон, Edi Gathegi, Гленн Хоуертон, Кион Янг, Валери Рэй Миллер, Laurent Schwaar, Дэвид Браун, Дориан Кинги, Дэниэл Стивенс, Уолли Лозаньо, Дэвид Т. Грин, Аллен Блумфилд, Стефани Мейс, Chester Bennington, Michael McLafferty
О фильме: Наемный убийца Чев узнает, что недоброжелатели отравили его редким китайским ядом и отрава начнет действовать немедленно, как только пульс перестанет биться ниже определенной отметки.
И теперь Чеву нужно успеть сделать все свои дела, попробовать раздобыть противоядие и отомстить своим отравителям в прямом смысле слова впопыхах — стараясь создавать вокруг себя как можно более напряженную обстановку и не расслабляться ни на секунду.-* Дублированный перевод и перевод П.Гланца неполные, на места без перевода прилагаются форсированные субтитры.
* Перевод А.Чадова содержит ненормативную лексику.

SbR!
Релиз:
Тип релиза: BDRip 720p
Контейнер: MKV
Видео: 1280x692 at 23.976 fps, x264, ~8014 kbps avg
Аудио #01: Russian: 48 kHz, AC3, 3/2 (L,C,R,l,r) + LFE ch, ~448.00 kbps avg |Дубляж|
Аудио #02: Russian: 48 kHz, DTS 5.1, ~1509.00 kbps avg |Двухголосый закадровый, П. Гланц и И. Королёва|
Аудио #03: Russian: 48 kHz, AC3, 3/2 (L,C,R,l,r) + LFE ch, ~448.00 kbps avg |Одноголосый закадровый, М. Чадов|
Аудио #04: English: 48 kHz, DTS 5.1, ~1509.00 kbps avg
Семпл-

Source vs Encode






-

-

mInfo

Формат : Matroska
Версия формата : Version 4 / Version 2
Размер файла : 7,85 Гбайт
Продолжительность : 1 ч. 34 м.
Общий поток : 11,9 Мбит/сек
Название фильма : Crank (2006) - [Extended] Encode by SbR
Дата кодирования : UTC 2015-07-11 12:17:08
Программа кодирования : mkvmerge v8.1.0 ('Psychedelic Postcard') 64bit
Библиотека кодирования : libebml v1.3.1 + libmatroska v1.4.2
Attachements : cover.jpg / xlog.txt
Видео
Идентификатор : 1
Формат : AVC
Формат/Информация : Advanced Video Codec
Профиль формата : High@L4.1
Параметр CABAC формата : Да
Параметр ReFrames формата : 9 кадров
Идентификатор кодека : V_MPEG4/ISO/AVC
Продолжительность : 1 ч. 34 м.
Битрейт : 7781 Кбит/сек
Ширина : 1280 пикселей
Высота : 692 пикселя
Соотношение сторон : 1,85:1
Режим частоты кадров : Постоянный
Частота кадров : 23,976 кадра/сек
Цветовое пространство : YUV
Субдискретизация насыщенности : 4:2:0
Битовая глубина : 8 бит
Тип развёртки : Прогрессивная
Бит/(Пиксели*Кадры) : 0.366
Размер потока : 5,12 Гбайт (65%)
Заголовок : Release for HDCLUB
Библиотека кодирования : x264 core 146 r2538kMod 121396c
Настройки программы : cabac=1 / ref=9 / deblock=1:-2:-2 / analyse=0x3:0x133 / me=umh / subme=11 / psy=1 / fade_compensate=0.00 / psy_rd=1.00:0.00 / mixed_ref=1 / me_range=32 / chroma_me=1 / trellis=2 / 8x8dct=1 / cqm=0 / deadzone=21,11 / fast_pskip=1 / chroma_qp_offset=-2 / threads=12 / lookahead_threads=2 / sliced_threads=0 / nr=0 / decimate=1 / interlaced=0 / bluray_compat=0 / constrained_intra=0 / fgo=0 / bframes=8 / b_pyramid=2 / b_adapt=2 / b_bias=0 / direct=1 / weightb=1 / open_gop=0 / weightp=2 / keyint=250 / keyint_min=23 / scenecut=40 / intra_refresh=0 / rc_lookahead=60 / rc=crf / mbtree=0 / crf=16.5000 / qcomp=0.70 / qpmin=0 / qpmax=69 / qpstep=4 / vbv_maxrate=62500 / vbv_bufsize=78125 / crf_max=0.0 / nal_hrd=none / filler=0 / ip_ratio=1.40 / pb_ratio=1.30 / aq=1:0.80
Язык : English
Default : Да
Forced : Нет
Основные цвета : BT.709
Характеристики трансфера : BT.709
Коэффициенты матрицы : BT.709
colour_range : Limited
Аудио #1
Идентификатор : 2
Формат : AC-3
Формат/Информация : Audio Coding 3
Расширение режима : CM (complete main)
Параметр Endianness формата : Big
Идентификатор кодека : A_AC3
Продолжительность : 1 ч. 34 м.
Вид битрейта : Постоянный
Битрейт : 448 Кбит/сек
Каналы : 6 каналов
Расположение каналов : Front: L C R, Side: L R, LFE
Частота : 48,0 КГц
Битовая глубина : 16 бит
Метод сжатия : С потерями
Размер потока : 302 Мбайт (4%)
Заголовок : Dub
Язык : Russian
Default : Да
Forced : Нет
Аудио #2
Идентификатор : 3
Формат : DTS
Формат/Информация : Digital Theater Systems
Режим : 16
Параметр Endianness формата : Big
Идентификатор кодека : A_DTS
Продолжительность : 1 ч. 34 м.
Вид битрейта : Постоянный
Битрейт : 1510 Кбит/сек
Каналы : 6 каналов
Расположение каналов : Front: L C R, Side: L R, LFE
Частота : 48,0 КГц
Битовая глубина : 24 бит
Метод сжатия : С потерями
Размер потока : 1017 Мбайт (13%)
Заголовок : Гланц и Королёва
Язык : Russian
Default : Нет
Forced : Нет
Аудио #3
Идентификатор : 4
Формат : AC-3
Формат/Информация : Audio Coding 3
Расширение режима : CM (complete main)
Параметр Endianness формата : Big
Идентификатор кодека : A_AC3
Продолжительность : 1 ч. 34 м.
Вид битрейта : Постоянный
Битрейт : 448 Кбит/сек
Каналы : 6 каналов
Расположение каналов : Front: L C R, Side: L R, LFE
Частота : 48,0 КГц
Битовая глубина : 16 бит
Метод сжатия : С потерями
Размер потока : 302 Мбайт (4%)
Заголовок : Чадов
Язык : Russian
Default : Нет
Forced : Нет
Аудио #4
Идентификатор : 5
Формат : DTS
Формат/Информация : Digital Theater Systems
Режим : 16
Параметр Endianness формата : Big
Идентификатор кодека : A_DTS
Продолжительность : 1 ч. 34 м.
Вид битрейта : Постоянный
Битрейт : 1509 Кбит/сек
Каналы : 6 каналов
Расположение каналов : Front: L C R, Side: L R, LFE
Частота : 48,0 КГц
Битовая глубина : 24 бит
Метод сжатия : С потерями
Размер потока : 1016 Мбайт (13%)
Язык : English
Default : Нет
Forced : Нет
Текст #1
Идентификатор : 6
Формат : UTF-8
Идентификатор кодека : S_TEXT/UTF8
Идентификатор кодека/Информация : UTF-8 Plain Text
Заголовок : forced
Язык : Russian
Default : Да
Forced : Нет
Текст #2
Идентификатор : 7
Формат : UTF-8
Идентификатор кодека : S_TEXT/UTF8
Идентификатор кодека/Информация : UTF-8 Plain Text
Язык : Russian
Default : Нет
Forced : Нет
Текст #3
Идентификатор : 8
Формат : UTF-8
Идентификатор кодека : S_TEXT/UTF8
Идентификатор кодека/Информация : UTF-8 Plain Text
Заголовок : forced
Язык : English
Default : Нет
Forced : Нет
Текст #4
Идентификатор : 9
Формат : UTF-8
Идентификатор кодека : S_TEXT/UTF8
Идентификатор кодека/Информация : UTF-8 Plain Text
Язык : English
Default : Нет
Forced : Нет
Меню
00:00:00.000 : en:Chapter 1
00:05:20.320 : en:Chapter 2
00:15:15.039 : en:Chapter 3
00:20:06.413 : en:Chapter 4
00:26:24.332 : en:Chapter 5
00:31:23.548 : en:Chapter 6
00:39:41.379 : en:Chapter 7
00:49:22.417 : en:Chapter 8
00:56:24.798 : en:Chapter 9
01:08:05.498 : en:Chapter 10
01:24:32.233 : en:Chapter 11
01:27:49.347 : en:Chapter 12
-

_________________
Показать сообщения:    

Текущее время: Сегодня 22:53

Часовой пояс: GMT



Вы не можете начинать темы
Вы не можете отвечать на сообщения
Вы не можете редактировать свои сообщения
Вы не можете удалять свои сообщения
Вы не можете голосовать в опросах
Вы не можете прикреплять файлы к сообщениям
Вы не можете скачивать файлы
Наши партнеры: интернет магазин Ивановского трикотажа textilla.ru