Важное объявление!
У Нас Все раздачи мультитрекерные, при нуле пиров в релизах, можете смело вставать на закачку!
 
Автор Сообщение

HUNTER

Стаж:
4 года 11 месяцев
Сообщений:
66039

Репутация: 101

[+] [-]
Вне форума [Профиль] [ЛС]

Адреналин: История BMW Motorsport / Adrenalin - The BMW Touring Car Story
Дата/Год выпуска: 1 декабря 2014
Страна: Германия
Жанр: Документальный
Продолжительность: 02:02:57
Перевод: Студийный (одноголосый закадровый)
Доп. инфо о переводе: BMIRussian
Русские субтитры: есть
Оригинальная аудиодорожка: немецкий
Режиссер: Тим и Ник Хане
Описание: Документальный фильм, посвященный истории компании BMW в автоспорте и бренду "М".
Историю пятидесяти лет BMW в автогонках расскажут люди, непосредственно связанные с этим - от Хуберта Ханне (пилот из 60ых) и Алекса Занарди до Марко Виттмана (чемпион DTM 2014), от Поля Роше (главный моторист в течение многих лет) до Йохена Неерпаша (создатель BMW M Gmbh)
Фильм будет интересен не только фанатам марки, но и просто любителям автоспорта и его истории.
Сэмпл: http://sendfile.su/1208674
качество: BDRip
формат: MKV
Видео: MPEG4, 1920x1080, 19:6, 6439 Кбит/сек, 25.000 кадров/сек
Аудио: AC3, 192 Кбит/сек, 48,0 КГц, 2 канала (Russian)
Аудио 2: AC3, 192 Кбит/сек, 48,0 КГц, 2 канала (German)
Аудио 2: AC3, 192 Кбит/сек, 48,0 КГц, 2 канала (English)

MediaInfo

ОбщееУникальный идентификатор : 212005859999589925839642821702140104281 (0x9F7ED7EA1A5C38F0804E2B8D2FD50E59)Полное имя : E:\Lyonya\Adrenalin - The BMW Touring Car Story 1080p [BMIRussian].mkvФормат : MatroskaВерсия формата : Version 4 / Version 2Размер файла : 6,02 ГбайтПродолжительность : 2 ч. 2 м.Режим общего битрейта : ПеременныйОбщий поток : 7013 Кбит/секДата кодирования : UTC 2016-02-23 08:36:10Программа кодирования : mkvmerge v7.1.0 ('Good Love') 64bit built on Jul 27 2014 13:06:55Библиотека кодирования : libebml v1.3.0 + libmatroska v1.4.1_STATISTICS_WRITING_APP : mkvmerge v7.1.0 ('Good Love') 64bit built on Jul 27 2014 13:06:55_STATISTICS_WRITING_DATE_UTC : 2016-02-23 08:36:10_STATISTICS_TAGS : BPS DURATION NUMBER_OF_FRAMES NUMBER_OF_BYTESDURATION : 02:02:56.672000000NUMBER_OF_FRAMES : 230521NUMBER_OF_BYTES : 177040128
ВидеоИдентификатор : 1Формат : AVCФормат/Информация : Advanced Video CodecПрофиль формата : High@L4Параметр CABAC формата : ДаПараметр ReFrames формата : 3 кадраПараметр GOP формата : M=4, N=48Идентификатор кодека : V_MPEG4/ISO/AVCПродолжительность : 2 ч. 2 м.Вид битрейта : ПеременныйБитрейт : 6439 Кбит/секМаксимальный битрейт : 15,0 Мбит/секШирина : 1920 пикселейВысота : 1080 пикселейСоотношение сторон : 16:9Режим частоты кадров : ПостоянныйЧастота кадров : 25,000 кадров/секЦветовое пространство : YUVСубдискретизация насыщенности : 4:2:0Битовая глубина : 8 битТип развёртки : ПрогрессивнаяБит/(Пиксели*Кадры) : 0.124Размер потока : 5,41 Гбайт (90%)Библиотека кодирования : x264 core 144 r2525 40bb568Настройки программы : cabac=1 / ref=3 / deblock=1:0:0 / analyse=0x3:0x113 / me=hex / subme=7 / psy=1 / psy_rd=1.00:0.00 / mixed_ref=1 / me_range=16 / chroma_me=1 / trellis=1 / 8x8dct=1 / cqm=0 / deadzone=21,11 / fast_pskip=1 / chroma_qp_offset=-2 / threads=3 / lookahead_threads=1 / sliced_threads=0 / nr=0 / decimate=1 / interlaced=fake / bluray_compat=1 / constrained_intra=0 / bframes=3 / b_pyramid=0 / b_adapt=1 / b_bias=0 / direct=1 / weightb=1 / open_gop=0 / weightp=1 / keyint=48 / keyint_min=1 / scenecut=40 / intra_refresh=0 / rc_lookahead=40 / rc=2pass / mbtree=1 / bitrate=6439 / ratetol=1.0 / qcomp=0.60 / qpmin=0 / qpmax=69 / qpstep=4 / cplxblur=20.0 / qblur=0.5 / vbv_maxrate=15000 / vbv_bufsize=15000 / nal_hrd=vbr / filler=0 / ip_ratio=1.10 / aq=1:1.00Default : ДаForced : Нет
Аудио #1Идентификатор : 2Формат : AC-3Формат/Информация : Audio Coding 3Расширение режима : CM (complete main)Параметр Endianness формата : BigИдентификатор кодека : A_AC3Продолжительность : 2 ч. 2 м.Вид битрейта : ПостоянныйБитрейт : 192 Кбит/секКаналы : 2 каналаРасположение каналов : Front: L RЧастота : 48,0 КГцМетод сжатия : С потерямиРазмер потока : 169 Мбайт (3%)Язык : RussianDefault : ДаForced : Нет
Аудио #2Идентификатор : 3Формат : AC-3Формат/Информация : Audio Coding 3Расширение режима : CM (complete main)Параметр Endianness формата : BigИдентификатор кодека : A_AC3Продолжительность : 2 ч. 2 м.Вид битрейта : ПостоянныйБитрейт : 192 Кбит/секКаналы : 2 каналаРасположение каналов : Front: L RЧастота : 48,0 КГцМетод сжатия : С потерямиРазмер потока : 169 Мбайт (3%)Язык : GermanDefault : НетForced : Нет
Аудио #3Идентификатор : 4Формат : AC-3Формат/Информация : Audio Coding 3Расширение режима : CM (complete main)Параметр Endianness формата : BigИдентификатор кодека : A_AC3Продолжительность : 2 ч. 2 м.Вид битрейта : ПостоянныйБитрейт : 192 Кбит/секКаналы : 2 каналаРасположение каналов : Front: L RЧастота : 48,0 КГцМетод сжатия : С потерямиРазмер потока : 169 Мбайт (3%)Язык : EnglishDefault : НетForced : Нет
Текст #1Идентификатор : 5Формат : PGSРежим смешивания : zlibИдентификатор кодека : S_HDMV/PGSИдентификатор кодека/Информация : Picture based subtitle format used on BDs/HD-DVDsЯзык : GermanDefault : НетForced : Нет
Текст #2Идентификатор : 6Формат : PGSРежим смешивания : zlibИдентификатор кодека : S_HDMV/PGSИдентификатор кодека/Информация : Picture based subtitle format used on BDs/HD-DVDsЯзык : EnglishDefault : НетForced : Нет
Меню00:00:00.000 : en:00:00:00.00000:05:02.319 : en:00:05:02.31900:07:01.000 : en:00:07:01.00000:14:46.399 : en:00:14:46.39900:24:26.960 : en:00:24:26.96000:32:38.160 : en:00:32:38.16000:38:47.480 : en:00:38:47.48000:44:46.480 : en:00:44:46.48000:51:07.239 : en:00:51:07.23900:59:09.760 : en:00:59:09.76001:22:12.920 : en:01:22:12.92001:25:23.079 : en:01:25:23.07901:33:01.479 : en:01:33:01.47901:40:20.079 : en:01:40:20.07901:53:46.439 : en:01:53:46.43901:56:45.119 : en:01:56:45.11902:02:56.640 : en:02:02:56.640

Скриншоты


_________________
Показать сообщения:    

Текущее время: Сегодня 01:14

Часовой пояс: GMT



Вы не можете начинать темы
Вы не можете отвечать на сообщения
Вы не можете редактировать свои сообщения
Вы не можете удалять свои сообщения
Вы не можете голосовать в опросах
Вы не можете прикреплять файлы к сообщениям
Вы не можете скачивать файлы