Важное объявление!
У Нас Все раздачи мультитрекерные, при нуле пиров в релизах, можете смело вставать на закачку!
 
Автор Сообщение

HUNTER

Стаж:
4 года 10 месяцев
Сообщений:
65485

Репутация: 101

[+] [-]
Вне форума [Профиль] [ЛС]

Адмиралъ
Год выпуска: 2008
Страна: Россия
Жанр: Драма,история
Продолжительность: 02:04:00
Перевод: Не требуется
Субтитры: English / Russian
Режиссер: Андрей Кравчук
В ролях: Константин Хабенский, Елизавета Боярская, Сергей Безруков, Анна Ковальчук, Владислав Ветров, Егор Бероев, Ришар Боринжер, Виктор Вержбицкий, Фёдор Бондарчук, Игорь Савочкин, Кирилл Плетнев, Олег Фомин, Анатолий Пашинин, Алексей Кравченко, Владимир Зайцев, Максим Дрозд, Николай Бурляев
Описание: Фильм, рассказывающий о жизни и любви выдающегося боевого офицера военно-морского флота, полярного исследователя, а затем ставшего адмиралом, верховного правителя России - Александра Васильевича Колчака и Анны Тимиревой. События разворачиваются в период 1916-1920 годов на фоне крушения Российской империи, двух революций и Гражданской войны.

BD-info

Disc Title:
Disc Size: 24 431 219 766 bytes
Protection: AACS
BD-Java: No
BDInfo: 0.5.3
Notes:
BDINFO HOME:
Cinema Squid
http://www.cinemasquid.com/blu-ray/tools/bdinfo
INCLUDES FORUMS REPORT FOR:
AVS Forum Blu-ray Audio and Video Specifications Thread
http://www.avsforum.com/avs-vb/showthread.php?t=1155731
********************
PLAYLIST: 00002.MPLS
********************
<--- BEGIN FORUMS PASTE --->
Код:
Total   Video
Title                                                           Codec   Length  Movie Size      Disc Size       Bitrate Bitrate Main Audio Track                          Secondary Audio Track
-----                                                           ------  ------- --------------  --------------  ------- ------- ------------------                        ---------------------
00002.MPLS                                                      AVC     2:04:02 22 951 655 424  24 431 219 766  24,67   20,00   DTS-HD Master 7.1 2841Kbps (48kHz/16-bit) DD AC3 5.1 448Kbps
Код:
DISC INFO:
Disc Title:
Disc Size:      24 431 219 766 bytes
Protection:     AACS
BD-Java:        No
BDInfo:         0.5.3
PLAYLIST REPORT:
Name:                   00002.MPLS
Length:                 2:04:02 (h:m:s)
Size:                   22 951 655 424 bytes
Total Bitrate:          24,67 Mbps
VIDEO:
Codec                   Bitrate             Description
-----                   -------             -----------
MPEG-4 AVC Video        19999 kbps          1080p / 23,976 fps / 16:9 / High Profile 4.1
AUDIO:
Codec                           Language        Bitrate         Description
-----                           --------        -------         -----------
DTS-HD Master Audio             Russian         2841 kbps       7.1 / 48 kHz / 2841 kbps / 16-bit (DTS Core: 5.1 / 48 kHz / 1509 kbps / 16-bit)
Dolby Digital Audio             Russian         448 kbps        5.1 / 48 kHz / 448 kbps / DN -4dB
SUBTITLES:
Codec                           Language        Bitrate         Description
-----                           --------        -------         -----------
Presentation Graphics           English         21,037 kbps
Presentation Graphics           Russian         18,885 kbps
FILES:
Name            Time In         Length          Size            Total Bitrate
----            -------         ------          ----            -------------
00002.M2TS      0:00:00.000     2:04:02.643     22 951 655 424  24 670
CHAPTERS:
Number          Time In         Length          Avg Video Rate  Max 1-Sec Rate  Max 1-Sec Time  Max 5-Sec Rate  Max 5-Sec Time  Max 10Sec Rate  Max 10Sec Time  Avg Frame Size  Max Frame Size  Max Frame Time
------          -------         ------          --------------  --------------  --------------  --------------  --------------  --------------  --------------  --------------  --------------  --------------
1               0:00:00.000     0:01:33.176     11 366 kbps     37 581 kbps     00:01:11.446    24 140 kbps     00:01:08.943    19 161 kbps     00:01:02.437    59 232 bytes    469 745 bytes   00:01:29.589
2               0:01:33.176     0:07:52.388     20 750 kbps     45 109 kbps     00:02:26.855    34 876 kbps     00:02:22.892    32 196 kbps     00:07:00.503    108 181 bytes   440 700 bytes   00:07:31.451
3               0:09:25.565     0:04:28.851     18 079 kbps     42 092 kbps     00:13:03.365    30 043 kbps     00:12:03.139    26 901 kbps     00:12:05.307    94 256 bytes    562 222 bytes   00:11:06.332
4               0:13:54.416     0:03:20.325     26 749 kbps     44 340 kbps     00:16:32.658    40 367 kbps     00:16:32.241    36 144 kbps     00:16:28.904    139 458 bytes   522 966 bytes   00:14:50.264
5               0:17:14.742     0:09:42.498     21 092 kbps     47 600 kbps     00:17:17.953    43 016 kbps     00:17:14.742    38 497 kbps     00:17:14.742    109 966 bytes   539 894 bytes   00:25:49.798
6               0:26:57.240     0:05:09.267     18 148 kbps     41 524 kbps     00:31:39.606    33 316 kbps     00:28:39.300    27 342 kbps     00:28:50.395    94 616 bytes    411 502 bytes   00:28:41.970
7               0:32:06.507     0:10:32.548     24 170 kbps     47 751 kbps     00:41:41.665    41 402 kbps     00:32:33.242    39 224 kbps     00:36:38.613    126 011 bytes   614 008 bytes   00:34:06.169
8               0:42:39.056     0:06:43.236     19 354 kbps     41 093 kbps     00:47:30.055    36 804 kbps     00:47:28.303    33 797 kbps     00:47:27.719    100 902 bytes   397 679 bytes   00:46:10.517
9               0:49:22.292     0:07:21.774     21 919 kbps     46 034 kbps     00:54:50.954    41 757 kbps     00:54:47.200    38 600 kbps     00:54:42.862    114 276 bytes   690 458 bytes   00:53:31.750
10              0:56:44.067     0:04:40.488     16 039 kbps     44 972 kbps     00:56:46.653    40 488 kbps     00:56:46.653    36 051 kbps     00:56:46.653    83 619 bytes    474 905 bytes   00:56:50.657
11              1:01:24.555     0:09:19.475     23 604 kbps     47 473 kbps     01:02:09.434    40 927 kbps     01:07:04.562    39 758 kbps     01:07:03.436    123 061 bytes   445 109 bytes   01:02:38.421
12              1:10:44.031     0:09:29.151     19 443 kbps     41 271 kbps     01:12:47.738    36 363 kbps     01:13:49.425    35 571 kbps     01:13:44.378    101 369 bytes   522 580 bytes   01:15:57.261
13              1:20:13.183     0:06:49.325     22 868 kbps     47 195 kbps     01:25:24.536    41 379 kbps     01:24:00.201    38 675 kbps     01:23:57.532    119 224 bytes   531 170 bytes   01:25:34.212
14              1:27:02.508     0:09:23.646     19 916 kbps     46 013 kbps     01:31:21.350    40 974 kbps     01:31:17.388    38 465 kbps     01:31:12.383    103 831 bytes   639 594 bytes   01:31:17.763
15              1:36:26.155     0:04:12.919     16 596 kbps     34 476 kbps     01:38:21.020    30 149 kbps     01:38:21.020    24 134 kbps     01:38:21.020    86 526 bytes    376 755 bytes   01:36:29.909
16              1:40:39.074     0:09:41.914     17 509 kbps     40 884 kbps     01:50:19.446    35 394 kbps     01:50:12.522    33 134 kbps     01:50:10.979    91 283 bytes    478 503 bytes   01:50:19.487
17              1:50:20.989     0:08:41.520     15 869 kbps     48 128 kbps     01:58:17.256    40 904 kbps     01:57:36.215    36 429 kbps     01:57:35.089    82 732 bytes    559 290 bytes   01:58:18.216
18              1:59:02.510     0:05:00.133     16 905 kbps     39 304 kbps     02:00:15.082    30 150 kbps     01:59:16.357    27 379 kbps     01:59:14.272    88 149 bytes    453 839 bytes   02:00:16.083
STREAM DIAGNOSTICS:
File            PID             Type            Codec           Language                Seconds                 Bitrate                 Bytes           Packets
----            ---             ----            -----           --------                --------------          --------------          -------------   -----
00002.M2TS      4113 (0x1011)   0x1B            AVC                                     7442,518                20 000                  18 605 997 398  101 224 060
00002.M2TS      4352 (0x1100)   0x86            DTS-HD MA       rus (Russian)           7442,518                2 841                   2 642 828 692   15 523 273
00002.M2TS      4353 (0x1101)   0x81            AC3             rus (Russian)           7442,518                448                     416 794 112     2 325 860
00002.M2TS      4608 (0x1200)   0x90            PGS             rus (Russian)           7442,518                19                      17 568 903      102 958
00002.M2TS      4609 (0x1201)   0x90            PGS             eng (English)           7442,518                21                      19 571 571      114 368
<---- END FORUMS PASTE ---->
QUICK SUMMARY:
Disc Title:
Disc Size: 24 431 219 766 bytes
Protection: AACS
BD-Java: No
Playlist: 00002.MPLS
Size: 22 951 655 424 bytes
Length: 2:04:02
Total Bitrate: 24,67 Mbps
Video: MPEG-4 AVC Video / 19999 kbps / 1080p / 23,976 fps / 16:9 / High Profile 4.1
Audio: Russian / DTS-HD Master Audio / 7.1 / 48 kHz / 2841 kbps / 16-bit (DTS Core: 5.1 / 48 kHz / 1509 kbps / 16-bit)
Audio: Russian / Dolby Digital Audio / 5.1 / 48 kHz / 448 kbps / DN -4dB
Subtitle: English / 21,037 kbps
Subtitle: Russian / 18,885 kbps
********************
PLAYLIST: 00004.MPLS
********************
<--- BEGIN FORUMS PASTE --->
Код:
Total   Video
Title                                                           Codec   Length  Movie Size      Disc Size       Bitrate Bitrate Main Audio Track                          Secondary Audio Track
-----                                                           ------  ------- --------------  --------------  ------- ------- ------------------                        ---------------------
00004.MPLS                                                      AVC     0:02:41 440 309 760     24 431 219 766  21,86   19,96   DD AC3 5.1 448Kbps                        DD AC3 5.1 448Kbps
Код:
DISC INFO:
Disc Title:
Disc Size:      24 431 219 766 bytes
Protection:     AACS
BD-Java:        No
BDInfo:         0.5.3
PLAYLIST REPORT:
Name:                   00004.MPLS
Length:                 0:02:41 (h:m:s)
Size:                   440 309 760 bytes
Total Bitrate:          21,86 Mbps
VIDEO:
Codec                   Bitrate             Description
-----                   -------             -----------
MPEG-4 AVC Video        19956 kbps          1080p / 23,976 fps / 16:9 / High Profile 4.1
AUDIO:
Codec                           Language        Bitrate         Description
-----                           --------        -------         -----------
Dolby Digital Audio             Russian         448 kbps        5.1 / 48 kHz / 448 kbps / DN -4dB
Dolby Digital Audio             Russian         448 kbps        5.1 / 48 kHz / 448 kbps / DN -4dB
FILES:
Name            Time In         Length          Size            Total Bitrate
----            -------         ------          ----            -------------
00005.M2TS      0:00:00.000     0:02:41.160     440 309 760     21 857
CHAPTERS:
Number          Time In         Length          Avg Video Rate  Max 1-Sec Rate  Max 1-Sec Time  Max 5-Sec Rate  Max 5-Sec Time  Max 10Sec Rate  Max 10Sec Time  Avg Frame Size  Max Frame Size  Max Frame Time
------          -------         ------          --------------  --------------  --------------  --------------  --------------  --------------  --------------  --------------  --------------  --------------
1               0:00:00.000     0:02:41.160     19 956 kbps     41 658 kbps     00:00:42.417    34 725 kbps     00:01:39.557    31 160 kbps     00:01:34.344    104 040 bytes   579 207 bytes   00:00:42.625
STREAM DIAGNOSTICS:
File            PID             Type            Codec           Language                Seconds                 Bitrate                 Bytes           Packets
----            ---             ----            -----           --------                --------------          --------------          -------------   -----
00005.M2TS      4113 (0x1011)   0x1B            AVC                                     161,078                 19 966                  402 009 914     2 187 097
00005.M2TS      4352 (0x1100)   0x81            AC3             rus (Russian)           161,078                 448                     9 026 304       50 370
00005.M2TS      4353 (0x1101)   0x81            AC3             rus (Russian)           161,078                 448                     9 026 304       50 370
<---- END FORUMS PASTE ---->
QUICK SUMMARY:
Disc Title:
Disc Size: 24 431 219 766 bytes
Protection: AACS
BD-Java: No
Playlist: 00004.MPLS
Size: 440 309 760 bytes
Length: 0:02:41
Total Bitrate: 21,86 Mbps
Video: MPEG-4 AVC Video / 19956 kbps / 1080p / 23,976 fps / 16:9 / High Profile 4.1
Audio: Russian / Dolby Digital Audio / 5.1 / 48 kHz / 448 kbps / DN -4dB
Audio: Russian / Dolby Digital Audio / 5.1 / 48 kHz / 448 kbps / DN -4dB
********************
PLAYLIST: 00003.MPLS
********************
<--- BEGIN FORUMS PASTE --->
Код:
Total   Video
Title                                                           Codec   Length  Movie Size      Disc Size       Bitrate Bitrate Main Audio Track                          Secondary Audio Track
-----                                                           ------  ------- --------------  --------------  ------- ------- ------------------                        ---------------------
00003.MPLS                                                      AVC     0:02:32 415 905 792     24 431 219 766  21,87   19,97   DD AC3 5.1 448Kbps                        DD AC3 5.1 448Kbps
Код:
DISC INFO:
Disc Title:
Disc Size:      24 431 219 766 bytes
Protection:     AACS
BD-Java:        No
BDInfo:         0.5.3
PLAYLIST REPORT:
Name:                   00003.MPLS
Length:                 0:02:32 (h:m:s)
Size:                   415 905 792 bytes
Total Bitrate:          21,87 Mbps
VIDEO:
Codec                   Bitrate             Description
-----                   -------             -----------
MPEG-4 AVC Video        19967 kbps          1080p / 23,976 fps / 16:9 / High Profile 4.1
AUDIO:
Codec                           Language        Bitrate         Description
-----                           --------        -------         -----------
Dolby Digital Audio             Russian         448 kbps        5.1 / 48 kHz / 448 kbps / DN -4dB
Dolby Digital Audio             Russian         448 kbps        5.1 / 48 kHz / 448 kbps / DN -4dB
FILES:
Name            Time In         Length          Size            Total Bitrate
----            -------         ------          ----            -------------
00004.M2TS      0:00:00.000     0:02:32.152     415 905 792     21 868
CHAPTERS:
Number          Time In         Length          Avg Video Rate  Max 1-Sec Rate  Max 1-Sec Time  Max 5-Sec Rate  Max 5-Sec Time  Max 10Sec Rate  Max 10Sec Time  Avg Frame Size  Max Frame Size  Max Frame Time
------          -------         ------          --------------  --------------  --------------  --------------  --------------  --------------  --------------  --------------  --------------  --------------
1               0:00:00.000     0:02:32.152     19 967 kbps     46 345 kbps     00:00:37.162    34 463 kbps     00:00:34.159    29 539 kbps     00:00:29.112    104 097 bytes   406 038 bytes   00:00:37.996
STREAM DIAGNOSTICS:
File            PID             Type            Codec           Language                Seconds                 Bitrate                 Bytes           Packets
----            ---             ----            -----           --------                --------------          --------------          -------------   -----
00004.M2TS      4113 (0x1011)   0x1B            AVC                                     152,069                 19 978                  379 745 089     2 065 950
00004.M2TS      4352 (0x1100)   0x81            AC3             rus (Russian)           152,069                 448                     8 520 960       47 550
00004.M2TS      4353 (0x1101)   0x81            AC3             rus (Russian)           152,069                 448                     8 520 960       47 550
<---- END FORUMS PASTE ---->
QUICK SUMMARY:
Disc Title:
Disc Size: 24 431 219 766 bytes
Protection: AACS
BD-Java: No
Playlist: 00003.MPLS
Size: 415 905 792 bytes
Length: 0:02:32
Total Bitrate: 21,87 Mbps
Video: MPEG-4 AVC Video / 19967 kbps / 1080p / 23,976 fps / 16:9 / High Profile 4.1
Audio: Russian / Dolby Digital Audio / 5.1 / 48 kHz / 448 kbps / DN -4dB
Audio: Russian / Dolby Digital Audio / 5.1 / 48 kHz / 448 kbps / DN -4dB
********************
PLAYLIST: 00005.MPLS
********************
<--- BEGIN FORUMS PASTE --->
Код:
Total   Video
Title                                                           Codec   Length  Movie Size      Disc Size       Bitrate Bitrate Main Audio Track                          Secondary Audio Track
-----                                                           ------  ------- --------------  --------------  ------- ------- ------------------                        ---------------------
00005.MPLS                                                      AVC     0:02:00 328 065 024     24 431 219 766  21,85   19,95   DD AC3 5.1 448Kbps                        DD AC3 5.1 448Kbps
Код:
DISC INFO:
Disc Title:
Disc Size:      24 431 219 766 bytes
Protection:     AACS
BD-Java:        No
BDInfo:         0.5.3
PLAYLIST REPORT:
Name:                   00005.MPLS
Length:                 0:02:00 (h:m:s)
Size:                   328 065 024 bytes
Total Bitrate:          21,85 Mbps
VIDEO:
Codec                   Bitrate             Description
-----                   -------             -----------
MPEG-4 AVC Video        19948 kbps          1080p / 23,976 fps / 16:9 / High Profile 4.1
AUDIO:
Codec                           Language        Bitrate         Description
-----                           --------        -------         -----------
Dolby Digital Audio             Russian         448 kbps        5.1 / 48 kHz / 448 kbps / DN -4dB
Dolby Digital Audio             Russian         448 kbps        5.1 / 48 kHz / 448 kbps / DN -4dB
FILES:
Name            Time In         Length          Size            Total Bitrate
----            -------         ------          ----            -------------
00008.M2TS      0:00:00.000     0:02:00.120     328 065 024     21 849
CHAPTERS:
Number          Time In         Length          Avg Video Rate  Max 1-Sec Rate  Max 1-Sec Time  Max 5-Sec Rate  Max 5-Sec Time  Max 10Sec Rate  Max 10Sec Time  Avg Frame Size  Max Frame Size  Max Frame Time
------          -------         ------          --------------  --------------  --------------  --------------  --------------  --------------  --------------  --------------  --------------  --------------
1               0:00:00.000     0:02:00.120     19 948 kbps     41 952 kbps     00:00:34.534    31 248 kbps     00:01:51.319    28 761 kbps     00:01:45.814    104 002 bytes   415 194 bytes   00:01:57.700
STREAM DIAGNOSTICS:
File            PID             Type            Codec           Language                Seconds                 Bitrate                 Bytes           Packets
----            ---             ----            -----           --------                --------------          --------------          -------------   -----
00008.M2TS      4113 (0x1011)   0x1B            AVC                                     119,953                 19 976                  299 525 276     1 629 534
00008.M2TS      4352 (0x1100)   0x81            AC3             rus (Russian)           119,953                 449                     6 727 168       37 540
00008.M2TS      4353 (0x1101)   0x81            AC3             rus (Russian)           119,953                 449                     6 727 168       37 540
<---- END FORUMS PASTE ---->
QUICK SUMMARY:
Disc Title:
Disc Size: 24 431 219 766 bytes
Protection: AACS
BD-Java: No
Playlist: 00005.MPLS
Size: 328 065 024 bytes
Length: 0:02:00
Total Bitrate: 21,85 Mbps
Video: MPEG-4 AVC Video / 19948 kbps / 1080p / 23,976 fps / 16:9 / High Profile 4.1
Audio: Russian / Dolby Digital Audio / 5.1 / 48 kHz / 448 kbps / DN -4dB
Audio: Russian / Dolby Digital Audio / 5.1 / 48 kHz / 448 kbps / DN -4dB

Скриншоты

Дополнительная информация:
На диске 3 рекламных ролика,фильм,предупреждение о пиратстве,заставка блю-рэй, и что то похожее на менюшную заставку но без кнопочек. выглядит она такКачество:Blu-Ray
Формат: AVC
Видео кодек: H.264
Аудио кодек: DTS
Видео: MPEG-4 AVC Video / 19999 kbps / 1080p / 23,976 fps / 16:9 / High Profile 4.1
Аудио 1: Russian / DTS-HD Master Audio / 7.1 / 48 kHz / 2841 kbps / 16-bit (DTS Core: 5.1 / 48 kHz / 1509 kbps / 16-bit)
Аудио 2: Russian / Dolby Digital Audio / 5.1 / 48 kHz / 448 kbps / DN -4dB
на раздаче круглосуточно

_________________
Показать сообщения:    

Текущее время: Сегодня 22:58

Часовой пояс: GMT



Вы не можете начинать темы
Вы не можете отвечать на сообщения
Вы не можете редактировать свои сообщения
Вы не можете удалять свои сообщения
Вы не можете голосовать в опросах
Вы не можете прикреплять файлы к сообщениям
Вы не можете скачивать файлы