Важное объявление!
У Нас Все раздачи мультитрекерные, при нуле пиров в релизах, можете смело вставать на закачку!
Статистика раздачи
Размер:     |    Зарегистрирован:     |    Скачан:     |   
Нет
 
     
 
 
Автор Сообщение

димитри37

Стаж:
4 года 5 месяцев
Сообщений:
1236

Репутация: 127

[+] [-]
Вне форума [Профиль] [ЛС]

Адам и Ева: Первая история любви / Adam and Eve: First love story
Страна: Италия, Испания
Жанр: мелодрама, приключения
Год выпуска: 1983
Продолжительность: 01:25:55
Перевод: Одноголосый закадровый
Cубтитры: нет
Оригинальная аудиодорожка: итальянский
Режиссер: Энцо Дория / Enzo Doria, Луиджи Руссо / Luigi Russo
В ролях: Марк Грегори, Андреа Голдман, Анхел Алькасар, Костантино Росси, Вито Форнари, Андреа Аурели и др.
Описание: Два особых дерева есть среди Эдемского сада: Дерево Жизни и Дерево познания Добра и Зла. Господь разрешил Адаму есть «от всякого дерева в саду» и только есть плоды от Дерева познания Добра и Зла было запрещено, предупредив, что результатом неповиновения будет смерть. Змей же, который «был хитрее всех зверей полевых, которых создал Господь Бог», хитростью и уловками убеждает Еву вкусить плод запретного Дерева познания Добра и Зла… Наверное, самый красивый и жизненный фильм про то, как начался путь первых мужчины и женщины…

Формат видео: AVI
Видео: 640x352 (1.82:1), 25 fps, XviD build 50 ~1486 kbps avg, 0.26 bit/pixel
Аудио: 48 kHz, MPEG Layer 3, 2 ch, ~128.00 kbps avg (русский)
Аудио 2: 48 kHz, MPEG Layer 3, 2 ch, ~128.00 kbps avg (итальянский)

MediaInfo

Полное имя : Adam.and.Eva.first.love.story.1983.avi
Формат : AVI
Формат/Информация : Audio Video Interleave
Размер файла : 1,05 Гбайт
Продолжительность : 1 ч. 25 м.
Общий поток : 1758 Кбит/сек
Программа кодирования : VirtualDubMod 1.5.10.1 (build 2366/release)
Библиотека кодирования : VirtualDubMod build 2366/release
Видео
Идентификатор : 0
Формат : MPEG-4 Visual
Профиль формата : Advanced Simple@L5
Параметр BVOP формата : 1
Параметр QPel формата : Нет
Параметр GMC формата : Без точки перехода
Параметр матрицы формата : Выборочная
Идентификатор кодека : XVID
Идентификатор кодека/Подсказка : XviD
Продолжительность : 1 ч. 25 м.
Битрейт : 1487 Кбит/сек
Ширина : 640 пикселей
Высота : 352 пикселя
Соотношение сторон : 16:9
Частота кадров : 25,000 кадров/сек
Цветовое пространство : YUV
Субдискретизация насыщенности : 4:2:0
Битовая глубина : 8 бит
Тип развёртки : Прогрессивная
Метод сжатия : С потерями
Бит/(Пиксели*Кадры) : 0.264
Размер потока : 914 Мбайт (85%)
Библиотека кодирования : XviD 1.2.1 (UTC 2008-12-04)
Аудио #1
Идентификатор : 1
Формат : MPEG Audio
Версия формата : Version 1
Профиль формата : Layer 3
Режим : Joint stereo
Расширение режима : MS Stereo
Идентификатор кодека : 55
Идентификатор кодека/Подсказка : MP3
Продолжительность : 1 ч. 25 м.
Вид битрейта : Постоянный
Битрейт : 128 Кбит/сек
Каналы : 2 канала
Частота : 48,0 КГц
Метод сжатия : С потерями
Размер потока : 78,7 Мбайт (7%)
Выравнивание : Соединение по промежуткам
Продолжительность промежутка : 40 мс. (1,00 видеокадр)
Время предзагрузки промежутка : 504 мс.
Язык : Italian
Аудио #2
Идентификатор : 2
Формат : MPEG Audio
Версия формата : Version 1
Профиль формата : Layer 3
Режим : Joint stereo
Расширение режима : MS Stereo
Идентификатор кодека : 55
Идентификатор кодека/Подсказка : MP3
Продолжительность : 1 ч. 25 м.
Вид битрейта : Постоянный
Битрейт : 128 Кбит/сек
Каналы : 2 канала
Частота : 48,0 КГц
Метод сжатия : С потерями
Размер потока : 78,7 Мбайт (7%)
Выравнивание : Соединение по промежуткам
Продолжительность промежутка : 40 мс. (1,00 видеокадр)
Время предзагрузки промежутка : 504 мс.

Скриншот c названием фильма

Скриншоты




-
Показать сообщения:    

Текущее время: Сегодня 12:45

Часовой пояс: GMT



Вы не можете начинать темы
Вы не можете отвечать на сообщения
Вы не можете редактировать свои сообщения
Вы не можете удалять свои сообщения
Вы не можете голосовать в опросах
Вы не можете прикреплять файлы к сообщениям
Вы не можете скачивать файлы