Ивановский Торрент трекер
Яндекс.Погода
 

[Цитировать]
Shalun

-Агент Хамилтон: В интересах нации / Hamilton: I nationens intresse- Информация о фильме
Название: Агент Хамилтон: В интересах нации
Оригинальное название: Hamilton: I nationens intresse
Год выхода: 2012
Жанр: боевик, триллер, драма
Режиссер: Кэтрин Уиндфельд
В ролях: Джейсон Флеминг, Микаэл Персбрандт, Давид Денсик, Пернилла Аугуст, Лео Грегори, Александр Носик, Густаф Хаммарстен, Терри Картер, Петер Андерссон, Ульф Фриберг
О фильме: Специальный агент Карл Гамильтон с секретной миссией на границе между Узбекистаном и Афганистаном. Он внедряется в тайную организацию русской мафии, которая украла сложные GPS-управляемые артиллерийские снаряды, экспортируемые шведской оборонной компанией Nordfors. Неожиданно они подвергаются нападению неизвестной группы вооруженных наемников, которые убивают всех, кроме Гамильтона, и скрываются вместе со снарядами.
Между тем, похищен шведский оружейный техник и заключен в тюрьму Сомали. Премьер-министр соглашается провести спасательную операцию при участии частной американской охранной компании Sectragon, с условием, что шведский наблюдатель будет присутствовать, а именно Карл Гамильтон. Гамильтон участвует в спасательной операции, но он чувствовал, что что-то не так. Кто-то говорит неправду, и он готов узнать, что происходит на самом деле.

Страна: Швеция
Продолжительность: 01:49:26
Перевод: Профессиональный (многоголосый закадровый)
Файл
Кодек: x.264
Качество: BDRip-AVC
Видео: 960x400 (2,40:1), 24 fps, 954 kbps, 0.104 bit/pixel
Звук: 48 kHz, AC3 Dolby Digital, 2 ch, ~128.00 kbps
Сэмпл

MediaInfo

Общее
Уникальный идентификатор : 199408882512462222341539391116020434783 (0x9604C0F916153AB68BB8195ACE5A475F)
Полное имя : D:Hamilton - I nationens intresse.2012.BDRip-AVC.mkv
Формат : Matroska
Версия формата : Version 4 / Version 2
Размер файла : 847 Мбайт
Продолжительность : 1 ч. 49 м.
Общий поток : 1083 Кбит/сек
Название фильма : Гамильтон: В интересах нации / Hamilton - I nationens intresse (2012) BDRip-AVC rip by Rulya74
Дата кодирования : UTC 2013-03-29 14:39:22
Программа кодирования : mkvmerge v6.1.0 ('Old Devil') built on Mar 2 2013 14:32:37
Библиотека кодирования : libebml v1.3.0 + libmatroska v1.4.0
Видео
Идентификатор : 1
Формат : AVC
Формат/Информация : Advanced Video Codec
Профиль формата : High@L4.1
Параметр CABAC формата : Да
Параметр ReFrames формата : 9 кадров
Идентификатор кодека : V_MPEG4/ISO/AVC
Продолжительность : 1 ч. 49 м.
Битрейт : 954 Кбит/сек
Ширина : 960 пикселей
Высота : 400 пикселей
Соотношение сторон : 2,40:1
Режим частоты кадров : Постоянный
Частота кадров : 24,000 кадра/сек
Цветовое пространство : YUV
Субдискретизация насыщенности : 4:2:0
Битовая глубина : 8 бит
Тип развёртки : Прогрессивная
Бит/(Пиксели*Кадры) : 0.104
Размер потока : 730 Мбайт (86%)
Библиотека кодирования : x264 core 130 r2273 b3065e6
Настройки программы : cabac=1 / ref=9 / deblock=1:-2:-1 / analyse=0x3:0x113 / me=umh / subme=9 / psy=1 / psy_rd=1.08:0.10 / mixed_ref=1 / me_range=32 / chroma_me=1 / trellis=2 / 8x8dct=1 / cqm=0 / deadzone=21,11 / fast_pskip=0 / chroma_qp_offset=-3 / threads=3 / lookahead_threads=1 / sliced_threads=0 / nr=0 / decimate=1 / interlaced=0 / bluray_compat=0 / constrained_intra=0 / bframes=6 / b_pyramid=2 / b_adapt=2 / b_bias=0 / direct=3 / weightb=1 / open_gop=0 / weightp=2 / keyint=250 / keyint_min=23 / scenecut=40 / intra_refresh=0 / rc_lookahead=40 / rc=2pass / mbtree=1 / bitrate=954 / ratetol=1.0 / qcomp=0.60 / qpmin=0 / qpmax=69 / qpstep=4 / cplxblur=20.0 / qblur=0.5 / ip_ratio=1.40 / aq=1:1.00
Default : Да
Forced : Нет
Аудио
Идентификатор : 2
Формат : AC-3
Формат/Информация : Audio Coding 3
Расширение режима : CM (complete main)
Параметр Endianness формата : Big
Идентификатор кодека : A_AC3
Продолжительность : 1 ч. 49 м.
Вид битрейта : Постоянный
Битрейт : 128 Кбит/сек
Каналы : 2 канала
Расположение каналов : Front: L R
Частота : 48,0 КГц
Битовая глубина : 16 бит
Метод сжатия : С потерями
Размер потока : 100 Мбайт (12%)
Заголовок : Профессиональный (многоголосый закадровый)
Язык : Russian
Default : Да
Forced : Нет

Скриншоты


-


Показать сообщения:    

Текущее время: 16-Дек 18:29

Часовой пояс: UTC ± 0


Вы не можете начинать темы
Вы не можете отвечать на сообщения
Вы не можете редактировать свои сообщения
Вы не можете удалять свои сообщения
Вы не можете голосовать в опросах
Вы не можете прикреплять файлы к сообщениям
Вы не можете скачивать файлы

!ВНИМАНИЕ!
Сайт не предоставляет электронные версии произведений, а занимается лишь коллекционированием и каталогизацией ссылок, присылаемых и публикуемых на форуме нашими читателями. Если вы являетесь правообладателем какого-либо представленного материала и не желаете, чтобы ссылка на него находилась в нашем каталоге, свяжитесь с нами, и мы незамедлительно удалим ее. Файлы для обмена на трекере предоставлены пользователями сайта, и администрация не несет ответственности за их содержание. Просьба не заливать файлы, защищенные авторскими правами, а также файлы нелегального содержания!