Важное объявление!
У Нас Все раздачи мультитрекерные, при нуле пиров в релизах, можете смело вставать на закачку!
 
Автор Сообщение

HUNTER

Стаж:
4 года 9 месяцев
Сообщений:
65047

Репутация: 101

[+] [-]
Вне форума [Профиль] [ЛС]

Авто SOS / Auto SOS
Дата/Год выпуска: 2013
Страна: UK
Жанр: Реалити шоу
Продолжительность: 00:44:00
Перевод: Студийный (одноголосый закадровый)
Телеканал: National Geographic
Описание: Возьмите одну любимую, но изрядно потрепанную машину, прибавьте хозяина, нуждающегося в помощи, тайком увезите этот автомобиль в прекрасно оборудованную мастерскую, в течение трех недель сдабривайте его смазкой, краской и ноу-хау по авторемонту, а затем верните его ничего не подозревающему владельцу, приправив щедрой порцией сюрприза. Когда автомеханики Тим и Фазз, жаждущие возвращать былую славу машинам, получают очередной вызов, будьте уверены, что скоро начнется настоящее пиршество преображения старых автомобилей.
1 СЕЗОН
качество: HDTVRip
формат: AVI
Видео: Xvid 720x400 25fps 1500kbps
Аудио: MP3 48000Hz stereo 128kbps 2 channels

Список выпусков/серий

ГИД ПО ЭПИЗОДАМ
Авто: S.O.S: Легенда Land Rover
Тим и Фазз взялись за восстановление Land Rover первой серии 1952 года выпуска, который простоял в гараже 16лет.
Авто: S.O.S: Реанимация "Форда"
В этой серии Тим и Фазз отправляются в Линкольн по настоящему SOS-вызову.
Авто: S.O.S: Чудесный "МГ"
Тим и Фазз спешат на помощь в Чешире. Восстановление спортивного автомобиля "MGTA" 1938 года - дело жизни для его владельца Дерека.
Авто: S.O.S: Загадка Porsche
Tим и Фазз вступают в гонку со временем, чтобы реставрировать "Порше-911", который уже так проржавел, что вскоре будет годен лишь на металлолом.
Авто: S.O.S: Ангелы Herald
Tим и Фазз отправляются в Корнуолл, чтобы спасти старый и сильно пострадавший от времени "Triumph Herald", который уже пять лет пылится в гараже.
Авто: S.O.S: Забытая классика
Тим и Фазз путешествуют по Великобритании в поисках автомобилей, видавших лучшие дни, и автовладельцев, нуждающихся в помощи с ремонтом их машин.
Авто: S.O.S: Morris Traveller
Тим и Фазз едут в Бедфордшир помочь Ричарду и Трейси закончить реставрацию автомобиля "Моррис" 1968 года в качестве подарка на 17-летие их сына.
Авто: S.O.S: Дилемма в Дании
Парни едут в Данию, чтобы отремонтировать больному мужчине его любимый "Вольво-Амазон" 1968 года. Успеют ли они сделать это при жизни хозяина?
Авто: S.O.S: Escort Rs
Тим и Фазз путешествуют по Великобритании в поисках знавших лучшие времена автомобилей, чтобы помочь их владельцам вернуть им былую славу.
Авто: S.O.S: Фургон для кемпинга
Тим и Фазз путешествуют по Великобритании в поисках знавших лучшие времена автомобилей, чтобы помочь их владельцам вернуть им былую славу.

MediaInfo

GeneralComplete name : C:\Users\hp\Videos\Auto SOS 2 Season\Ангелы Herald.aviFormat : AVIFormat/Info : Audio Video InterleaveFile size : 517 MiBDuration : 43mn 59sOverall bit rate : 1 643 KbpsWriting application : VirtualDubMod 1.5.10.3 | www.virtualdub-fr.org || (build 2550/release)Writing library : VirtualDubMod build 2550/release
VideoID : 0Format : MPEG-4 VisualFormat profile : Advanced Simple@L5Format settings, BVOP : 2Format settings, QPel : NoFormat settings, GMC : No warppointsFormat settings, Matrix : Default (MPEG)Codec ID : XVIDCodec ID/Hint : XviDDuration : 43mn 59sBit rate : 1 505 KbpsWidth : 720 pixelsHeight : 400 pixelsDisplay aspect ratio : 16:9Frame rate : 25.000 fpsColor space : YUVChroma subsampling : 4:2:0Bit depth : 8 bitsScan type : ProgressiveCompression mode : LossyBits/(Pixel*Frame) : 0.209Stream size : 474 MiB (92%)Writing library : XviD 1.2.1 (UTC 2008-12-04)
AudioID : 1Format : MPEG AudioFormat version : Version 1Format profile : Layer 3Codec ID : 55Codec ID/Hint : MP3Duration : 43mn 59sBit rate mode : ConstantBit rate : 128 KbpsChannel(s) : 2 channelsSampling rate : 48.0 KHzCompression mode : LossyStream size : 40.3 MiB (8%)Alignment : Aligned on interleavesInterleave, duration : 40 ms (1.00 video frame)Interleave, preload duration : 504 msWriting library : LAME3.99.5ЄЄЄЄЄЄЄЄЄЄ

Скриншоты



Загадка Porsche + Ангелы Herald
+ Легенда Land Rover

Внимание! Раздача ведётся путём добавления новых выпусков

Внимание! Раздача ведётся путём добавления новых выпусков; при каждом добавлении создаётся новый торрент. Чтобы начать докачку нового выпуска, пользователям необходимо сделать следующее:
(1) остановить скачивание,
(2) удалить старый торрент у себя из клиента (старые серии удалять не надо),
(3) скачать новый торрент и запустить его у себя в клиенте вместо старого, при этом указать клиенту путь в старую папку куда и должно происходить скачивание новых выпусков.
Ваш клиент при этом должен произвести хеширование (проверку) старой папки (если не производит сам - помогите ему сделать это). В результате он будет докачивать только те выпуски, которых у Вас ещё нет. Старые выпуски при этом не удаляются, а продолжают раздаваться!
Eсли Вы уже удалили старые выпуски, то предотвратить их повторную закачку можно, сняв галочки в соответствующих местах при запуске нового торрента. По возможности, желательно не удалять старые выпуски как можно дольше, чтобы релизёр не только продолжал раздавать старые выпуски, но и смог сконцентрироваться на новых.

_________________
Показать сообщения:    

Текущее время: Сегодня 14:52

Часовой пояс: GMT



Вы не можете начинать темы
Вы не можете отвечать на сообщения
Вы не можете редактировать свои сообщения
Вы не можете удалять свои сообщения
Вы не можете голосовать в опросах
Вы не можете прикреплять файлы к сообщениям
Вы не можете скачивать файлы