Важное объявление!
У Нас Все раздачи мультитрекерные, при нуле пиров в релизах, можете смело вставать на закачку!
Статистика раздачи
Размер:     |    Зарегистрирован:     |    Скачан:     |   
Нет
 
     
 
 
Автор Сообщение

HUNTER

Стаж:
5 лет
Сообщений:
67920

Репутация: 101

[+] [-]
Вне форума [Профиль] [ЛС]

Автомойка / Car wash
Страна: США
Студия: Universal Pictures
Жанр: мелодрама, комедия
Год выпуска: 1976
Продолжительность: 01:36:27
Перевод: Профессиональный (двухголосый закадровый)
Cубтитры: английские
Оригинальная аудиодорожка: английский
Режиссер: Майкл Шульц / Michael Schultz
В ролях: Фрэнклин Аджайе, Салли Бойар, Ричард Брестофф, Джордж Карлин, Ирвин Кори, Иван Диксон, Билл Дьюк, Антонио Фаргас, Майкл Феннел, Артур Френч, Ричард Прайор
Описание: Грубая и уморительно смешная комедия об одном дне из жизни лос-анджелесской автомойки. Великолепный актерский ансамбль. Сюжет практически отсутствует, фильм просто детализирует жизнь, надежды, мечты, амбиции и несчастья работников и клиентов на мойке автомобилей. Потрясающе сыграны сцены с участием чернокожего комика Ричарда Прайора, выступившего в роли священника. В цветастых штанах он приезжает на навороченной "тачке" в сопровождении популярной поп-группы Pointer Sisters. Великолепное музыкальное сопровождение Уитфилда способствует смене сцен, придавая фильму своеобразный ритм в стиле "фанки". Режиссер Шульц, один из первых чернокожих режиссеров, получивших широкое признание, попал прямо в яблочко.
Доп. информация: За русскую дорожку спасибо cosmics65.

Sample
Тип релиза: WEB-DL 720p
Контейнер: MKV
Видео: MPEG4 AVC Video, H264, 16:9, 1280x696, 23.976 fps, 3791 kbps
Аудио: Russian (AC3, 2 ch, 192 kbps, 16 bits, 48.0 KHz) - DVO
Аудио 2: English (AC3, 2 ch, 192 kbps, 16 bits, 48.0 KHz) - оригинал
Формат субтитров: softsub (SRT)

MediaInfo

General
Unique ID : 225410294718079232823502835004317147733 (0xA994719232F34748983002E77770A255)
Complete name : E:\Car Wash 1976 WEB-DL 720p.mkv
Format : Matroska
Format version : Version 4 / Version 2
File size : 2.87 GiB
Duration : 1h 36mn
Overall bit rate : 4 259 Kbps
Encoded date : UTC 2015-10-10 22:15:20
Writing application : mkvmerge v6.1.0 ('Old Devil') built on Mar 2 2013 14:32:37
Writing library : libebml v1.3.0 + libmatroska v1.4.0
Video
ID : 1
Format : AVC
Format/Info : Advanced Video Codec
Format profile : High@L3.1
Format settings, CABAC : No
Format settings, ReFrames : 2 frames
Codec ID : V_MPEG4/ISO/AVC
Duration : 1h 36mn
Bit rate : 3 791 Kbps
Width : 1 280 pixels
Height : 696 pixels
Display aspect ratio : 1.85:1
Frame rate mode : Constant
Frame rate : 23.976 fps
Color space : YUV
Chroma subsampling : 4:2:0
Bit depth : 8 bits
Scan type : Progressive
Bits/(Pixel*Frame) : 0.177
Stream size : 2.55 GiB (89%)
Language : English
Default : Yes
Forced : No
Color primaries : BT.709
Transfer characteristics : BT.709
Matrix coefficients : BT.709
Audio #1
ID : 2
Format : AC-3
Format/Info : Audio Coding 3
Mode extension : CM (complete main)
Format settings, Endianness : Big
Codec ID : A_AC3
Duration : 1h 36mn
Bit rate mode : Constant
Bit rate : 192 Kbps
Channel count : 2 channels
Channel positions : Front: L R
Sampling rate : 48.0 KHz
Bit depth : 16 bits
Compression mode : Lossy
Stream size : 132 MiB (5%)
Language : Russian
Default : Yes
Forced : No
Audio #2
ID : 3
Format : AC-3
Format/Info : Audio Coding 3
Mode extension : CM (complete main)
Format settings, Endianness : Big
Codec ID : A_AC3
Duration : 1h 36mn
Bit rate mode : Constant
Bit rate : 192 Kbps
Channel count : 2 channels
Channel positions : Front: L R
Sampling rate : 48.0 KHz
Bit depth : 16 bits
Compression mode : Lossy
Stream size : 132 MiB (5%)
Language : English
Default : No
Forced : No
Text
ID : 4
Format : UTF-8
Codec ID : S_TEXT/UTF8
Codec ID/Info : UTF-8 Plain Text
Language : English
Default : No
Forced : No
Menu
00:00:00.000 : en:Main Titles
00:02:22.000 : en:Good Morning
00:07:00.000 : en:Open for Business
00:16:33.000 : en:Mr. B.
00:19:37.000 : en:The Boss's Son
00:31:34.000 : en:Daddy Rich
00:40:33.000 : en:Sparky
00:44:33.000 : en:Lend Me Your Ears
00:48:17.000 : en:Next To You
00:59:32.000 : en:Justin's Dream
01:01:45.000 : en:Hippo and Marleen
01:06:09.000 : en:The Bomber
01:12:13.000 : en:Marsha's Date
01:16:51.000 : en:Abdullah Gets Fired
01:19:45.000 : en:The Radio Contest
01:24:25.000 : en:The Locker Room
01:28:39.000 : en:Going Home
01:33:45.000 : en:End Titles

Скриншоты


_________________
Показать сообщения:    

Текущее время: Сегодня 16:50

Часовой пояс: GMT



Вы не можете начинать темы
Вы не можете отвечать на сообщения
Вы не можете редактировать свои сообщения
Вы не можете удалять свои сообщения
Вы не можете голосовать в опросах
Вы не можете прикреплять файлы к сообщениям
Вы не можете скачивать файлы