Важное объявление!
У Нас Все раздачи мультитрекерные, при нуле пиров в релизах, можете смело вставать на закачку!
 
Автор Сообщение

HUNTER

Стаж:
4 года 10 месяцев
Сообщений:
65548

Репутация: 101

[+] [-]
Вне форума [Профиль] [ЛС]

Аватар (Расширенная версия) 3D+2D / Avatar (Extended Collector's Edition) 3D+2D
Год выпуска: 2009
Страна: США, Великобритания
Студия: Twentieth Century Fox Film Corporation
Жанр: Фантастика, Боевик, Драма, Приключения
Продолжительность: 02:58:09
Перевод: Профессиональный (дублированный)
Русские субтитры: есть
В ролях: Сэм Уортингтон, Зои Салдана, Сигурни Уивер, Стивен Лэнг, Мишель Родригес, Джованни Рибизи, Джоэль Мур, Си Си Эйч Паундер, Уэс Студи, Лас Алонсо
Роли озвучивали: Александр Ноткин, Мария Цветкова, Мария Кузнецова, Валерий Соловьев, Светлана Кузнецова, Олег Алмазов, Александр Майоров, Регина Щукина, Эрнест Тимерханов, Сергей Щипицын
Описание: Джейк Салли — бывший морской пехотинец, прикованный к инвалидному креслу. Несмотря на немощное тело, Джейк в душе по-прежнему остается воином. Он получает задание совершить путешествие в несколько световых лет к базе землян на планете Пандора, где корпорации добывают редкий минерал, имеющий огромное значение для выхода Земли из энергетического кризиса.
Дополнительная информация по релизу: Комбинированная версия - Театральная (продолжительностью 02:41:41) в 3д, со вставками недостающих эпизодов из Расширенной (самой полной на данный момент) в 2д. В фильме около двадцати вставленных эпизодов от нескольких секунд до, почти, пяти минут.
Анаглиф сделан с рипа Student-ak37 (aka TopGun)
Качество: HDrip
Контейнер: MKV
Формат 3D: Анаглиф red-cyan (Дюбуа)
Видео кодек: x264
Аудио кодек: AC3
Видео: AVC /1920x1080p / VBR / 16:9 / 13.1 Mbps / 23.976 fps
Аудио: Русский / AC3 / 6 channels / 48.0 KHz / 640 Kbps
Субтитры: Русские форсированные на язык На'Ви
СЭМПЛ

MediaInfo

General
Format : Matroska
File size : 17.5 GiB
Duration : 2h 58mn
Overall bit rate : 14.1 Mbps
Movie name : BDRip - by TopGun
Encoded date : UTC 2011-05-29 14:12:48
Writing application : mkvmerge v4.4.0 ('Die Wiederkehr') сборка от Oct 31 2010 21:52:48
Writing library : libebml v1.0.0 + libmatroska v1.0.0
Video
ID : 1
Format : AVC
Format/Info : Advanced Video Codec
Format profile : High@L4.0
Format settings, CABAC : Yes
Format settings, ReFrames : 4 frames
Codec ID : V_MPEG4/ISO/AVC
Duration : 2h 58mn
Bit rate : 13.1 Mbps
Width : 1 920 pixels
Height : 1 080 pixels
Display aspect ratio : 16:9
Frame rate : 23.976 fps
Color space : YUV
Chroma subsampling : 4:2:0
Bit depth : 8 bits
Scan type : Progressive
Bits/(Pixel*Frame) : 0.264
Stream size : 16.3 GiB (93%)
Writing library : x264 core 114 r1924 08d04a4
Encoding settings : cabac=1 / ref=4 / deblock=1:-3:-3 / analyse=0x3:0x113 / me=umh / subme=7 / psy=1 / psy_rd=1.00:0.15 / mixed_ref=1 / me_range=16 / chroma_me=1 / trellis=2 / 8x8dct=1 / cqm=0 / deadzone=21,11 / fast_pskip=1 / chroma_qp_offset=-3 / threads=6 / sliced_threads=0 / nr=0 / decimate=1 / interlaced=0 / constrained_intra=0 / bframes=6 / b_pyramid=0 / b_adapt=1 / b_bias=0 / direct=1 / weightb=1 / open_gop=0 / weightp=2 / keyint=250 / keyint_min=23 / scenecut=40 / intra_refresh=0 / rc_lookahead=40 / rc=crf / mbtree=1 / crf=18.0 / qcomp=0.60 / qpmin=0 / qpmax=69 / qpstep=4 / ip_ratio=1.40 / aq=1:1.00
Language : English
Audio
ID : 2
Format : AC-3
Format/Info : Audio Coding 3
Mode extension : CM (complete main)
Codec ID : A_AC3
Duration : 2h 58mn
Bit rate mode : Constant
Bit rate : 640 Kbps
Channel(s) : 6 channels
Channel positions : Front: L C R, Side: L R, LFE
Sampling rate : 48.0 KHz
Bit depth : 16 bits
Compression mode : Lossy
Stream size : 816 MiB (5%)
Title : Russian - Профессиональный (полное дублирование)
Language : Russian
Text
ID : 3
Format : UTF-8
Codec ID : S_TEXT/UTF8
Codec ID/Info : UTF-8 Plain Text
Language : Russian
Menu
00:00:00.000 : :00:00:00.000
00:05:25.575 : :00:05:25.575
00:10:12.278 : :00:10:12.278
00:11:47.915 : :00:11:47.915
00:15:59.208 : :00:15:59.208
00:17:54.781 : :00:17:54.781
00:23:54.891 : :00:23:54.891
00:27:54.547 : :00:27:54.547
00:28:02.555 : :00:28:02.555
00:28:45.223 : :00:28:45.223
00:30:14.020 : :00:30:14.020
00:30:27.617 : :00:30:27.617
00:32:04.464 : :00:32:04.464
00:32:27.904 : :00:32:27.904
00:37:16.525 : :00:37:16.525
00:39:08.053 : :00:39:08.053
00:41:18.475 : :00:41:18.475
00:47:43.318 : :00:47:43.318
00:48:09.177 : :00:48:09.177
00:49:16.912 : :00:49:16.912
00:53:05.015 : :00:53:05.015
00:54:22.008 : :00:54:22.008
00:55:42.213 : :00:55:42.213
00:57:44.043 : :00:57:44.043
00:58:32.050 : :00:58:32.050
01:01:09.415 : :01:01:09.415
01:03:09.619 : :01:03:09.619
01:03:57.208 : :01:03:57.208
01:07:03.227 : :01:07:03.227
01:09:40.634 : :01:09:40.634
01:11:50.222 : :01:11:50.222
01:15:18.889 : :01:15:18.889
01:15:53.799 : :01:15:53.799
01:17:32.230 : :01:17:32.230
01:18:07.891 : :01:18:07.891
01:22:38.119 : :01:22:38.119
01:25:59.487 : :01:25:59.487
01:26:12.709 : :01:26:12.709
01:27:42.298 : :01:27:42.298
01:27:54.435 : :01:27:54.435
01:33:00.408 : :01:33:00.408
01:36:03.424 : :01:36:03.424
01:37:36.642 : :01:37:36.642
01:37:36.892 : :01:37:36.892
01:44:15.290 : :01:44:15.290
01:46:49.235 : :01:46:49.235
01:48:14.029 : :01:48:14.029
01:48:58.198 : :01:48:58.198
01:50:02.595 : :01:50:02.595
01:51:53.581 : :01:51:53.581
01:58:30.895 : :01:58:30.895
02:02:13.284 : :02:02:13.284
02:07:51.663 : :02:07:51.663
02:09:30.554 : :02:09:30.554
02:12:36.615 : :02:12:36.615
02:16:03.363 : :02:16:03.363
02:19:31.654 : :02:19:31.654
02:23:59.630 : :02:23:59.630
02:30:05.079 : :02:30:05.079
02:32:13.290 : :02:32:13.290
02:32:59.211 : :02:32:59.211
02:33:56.852 : :02:33:56.852
02:34:52.908 : :02:34:52.908
02:40:02.259 : :02:40:02.259
02:40:45.886 : :02:40:45.886
02:41:03.987 : :02:41:03.987
02:45:33.214 : :02:45:33.214
02:46:30.813 : :02:46:30.813
02:46:48.498 : :02:46:48.498
02:48:56.793 : :02:48:56.793
02:49:11.724 : :02:49:11.724
02:51:32.073 : :02:51:32.073

Скриншоты

Сравнение разных типов анаглифа - Пример 1 (Смотреть в очках Red/Cyan)

Анаглиф полноцветный (Color)

Анаглиф Дюбуа

Анаглиф полуцветный (Halfcolor)

Сравнение разных типов анаглифа - Пример 2 (Смотреть в очках Red/Cyan)

Анаглиф полноцветный (Color)

Анаглиф Дюбуа

Анаглиф полуцветный (Halfcolor)
Внимание! Для просмотра нужны анаглифные очки красно-синезеленые
(кому нужно обращайтесь)
Другие мои раздачи в Анаглифе Дюбуа

_________________
Показать сообщения:    

Текущее время: Сегодня 13:39

Часовой пояс: GMT



Вы не можете начинать темы
Вы не можете отвечать на сообщения
Вы не можете редактировать свои сообщения
Вы не можете удалять свои сообщения
Вы не можете голосовать в опросах
Вы не можете прикреплять файлы к сообщениям
Вы не можете скачивать файлы