Важное объявление!
У Нас Все раздачи мультитрекерные, при нуле пиров в релизах, можете смело вставать на закачку!
 
Автор Сообщение

HUNTER

Стаж:
4 года 7 месяцев
Сообщений:
61531

Репутация: 101

[+] [-]
Вне форума [Профиль] [ЛС]

Аватар [Эксклюзивная версия] / Avatar [Exclusive Cut]
(TopGun's Edition)

Год выпуска: 2009
Страна: США, Великобритания
Жанр: фантастика, боевик, драма, приключения
Продолжительность: 03:40:32
Перевод: Профессиональный (полное дублирование) + Одноголосый закадровый (на вырезанные сцены) den904 (группа нетв кино)
Русские субтитры: есть-Режиссер: Джеймс Кэмерон

Сценарий: Джеймс Кэмерон
Продюсер: Джеймс Кэмерон, Джон Ландау, Брук Бретон
Оператор: Мауро Фиоре
Композитор: Джеймс Хорнер
Художник: Рик Картер, Роберт Стромберг, Ник Бассетт
Монтаж: Джеймс Кэмерон, Джон Рефуа, Стивен Е. Ривкин
В ролях:

Сэм Уортингтон, Зои Салдана, Сигурни Уивер, Стивен Лэнг, Мишель Родригес, Джованни Рибизи, Джоэль Мур, Си Си Эйч Паундер, Уэс Студи, Лас Алонсо и др.
Роли дублировали: Александр Ноткин, Мария Цветкова-Овсянникова, Елена Шульман, Мария Кузнецова, Валерий Соловьев и др.
Описание фильма: Джейк Салли - бывший морской пехотинец, прикованный к инвалидному креслу. Несмотря на немощное тело, Джейк в душе по-прежнему остается воином. Он получает задание совершить путешествие в несколько световых лет к базе землян на планете Пандора, где корпорации добывают редкий минерал, имеющий огромное значение для выхода Земли из энергетического кризиса.
Доп. информация: Эксклюзивная версия фильма продолжительностью 03:40:32 содержащая сцены из расширенной версии и ранее не показываемые удаленные эпизоды сделанные в первоначальном виде! Монтаж некоторых сцен изменен. Удаленные сцены не отрендерены полностью, местами временный звук, отсутствие фонов, временная графика и др.
автор рипа - TopGun, за что ему огромное спасибо!!!Проверено на встроенном плеере ТВ LG 42LW4500
Качество: BDRip
Формат: MKV
Формат 3d: Half OverUnder / Вертикальная анаморфная стереопара
Видео: AVC / 1920х1080 / 23,976fps / 11,2 Мбит/сек
Аудио 1: Rus AC-3 / 5.1 / 48 kHz / 448 kbps / 16-bit
Субтитры: Внешние: Russian (речь НА'ВИ) текстовые, Вшитые: 3d subtitle (for PC)

СкриншотыМедиа инфо
Код:
Общее
Уникальный идентификатор                 : 211449890519800634925645279351578910579 (0x9F13C480B59754208E4D4A81E8555F73)
Полное имя                               : D:\3D-RuGroup\Фильмы\Avatar_3d_Exclusiv_Cut (TopGun's Edition)\Avatar_3d_Exclusiv_Cut (TopGun's Edition).mkv
Формат                                   : Matroska
Версия формата                           : Version 2
Размер файла                             : 18,4 Гбайт
Продолжительность                        : 3 ч. 40 м.
Общий поток                              : 11,9 Мбит/сек
Дата кодирования                         : UTC 2012-05-31 16:11:02
Программа кодирования                    : mkvmerge v5.2.1 ('A Far Off Place') built on Jan  2 2012 23:21:10
Библиотека кодирования                   : libebml v1.2.3 + libmatroska v1.3.0
Видео
Идентификатор                            : 1
Формат                                   : AVC
Формат/Информация                        : Advanced Video Codec
Профиль формата                          : High@L4.1
Параметр CABAC формата                   : Да
Параметр ReFrames формата                : 4 кадра
Идентификатор кодека                     : V_MPEG4/ISO/AVC
Продолжительность                        : 3 ч. 40 м.
Битрейт                                  : 11,2 Мбит/сек
Ширина                                   : 1920 пикселей
Высота                                   : 1080 пикселей
Соотношение сторон                       : 16:9
Частота кадров                           : 23,976 кадра/сек
Цветовое пространство                    : YUV
Субдискретизация насыщенности            : 4:2:0
Битовая глубина                          : 8 бит
Тип развёртки                            : Прогрессивная
Бит/(Пиксели*Кадры)                      : 0.226
Размер потока                            : 17,3 Гбайт (94%)
Заголовок                                : Avatar_3d_Exclusiv_Cut (TopGun's Edition)
Библиотека кодирования                   : x264 core 116 r2074 2641b9e
Настройки программы                      : cabac=1 / ref=4 / deblock=1:-3:-3 / analyse=0x3:0x133 / me=tesa / subme=11 / psy=1 / psy_rd=1.10:0.05 / mixed_ref=1 / me_range=48 / chroma_me=1 / trellis=2 / 8x8dct=1 / cqm=0 / deadzone=21,11 / fast_pskip=0 / chroma_qp_offset=-3 / threads=6 / sliced_threads=0 / nr=0 / decimate=1 / interlaced=0 / bluray_compat=0 / constrained_intra=0 / bframes=7 / b_pyramid=2 / b_adapt=2 / b_bias=0 / direct=3 / weightb=1 / open_gop=0 / weightp=2 / keyint=250 / keyint_min=23 / scenecut=40 / intra_refresh=0 / rc_lookahead=40 / rc=crf / mbtree=1 / crf=18.0 / qcomp=0.60 / qpmin=10 / qpmax=69 / qpstep=4 / ip_ratio=1.50 / aq=1:0.80
Язык                                     : English
Default                                  : Да
Forced                                   : Нет
Аудио
Идентификатор                            : 2
Формат                                   : AC-3
Формат/Информация                        : Audio Coding 3
Расширение режима                        : CM (complete main)
Идентификатор кодека                     : A_AC3
Продолжительность                        : 3 ч. 40 м.
Вид битрейта                             : Постоянный
Битрейт                                  : 448 Кбит/сек
Каналы                                   : 6 каналов
Расположение каналов                     : Front: L C R, Side: L R, LFE
Частота                                  : 48,0 КГц
Битовая глубина                          : 16 бит
Метод сжатия                             : С потерями
Размер потока                            : 707 Мбайт (4%)
Заголовок                                : Dub+ VO (by den904)
Язык                                     : Russian
Default                                  : Да
Forced                                   : Нет
Текст
Идентификатор                            : 3
Формат                                   : PGS
Режим смешивания                         : zlib
Идентификатор кодека                     : S_HDMV/PGS
Идентификатор кодека/Информация          : The same subtitle format used on BDs/HD-DVDs
Заголовок                                : 3d subtitle (for PC)
Язык                                     : Russian
Default                                  : Да
Forced                                   : Нет
Внимание! Рип содержит 2Д вставки из расширенной версии и ранее не показываемые удаленные эпизоды!

_________________
Показать сообщения:    

Текущее время: Сегодня 08:21

Часовой пояс: GMT



Вы не можете начинать темы
Вы не можете отвечать на сообщения
Вы не можете редактировать свои сообщения
Вы не можете удалять свои сообщения
Вы не можете голосовать в опросах
Вы не можете прикреплять файлы к сообщениям
Вы не можете скачивать файлы
Наши партнеры: интернет магазин Ивановского трикотажа textilla.ru