Важное объявление!
У Нас Все раздачи мультитрекерные, при нуле пиров в релизах, можете смело вставать на закачку!
Статистика раздачи
Размер:     |    Зарегистрирован:     |    Скачан:     |   
Нет
 
     
 
 
Автор Сообщение

HUNTER

Стаж:
5 лет
Сообщений:
67947

Репутация: 101

[+] [-]
Вне форума [Профиль] [ЛС]

--Абатуар. Лабиринт страха / Abattoir--
Страна: США
Студия: Dark Web Productions
Жанр: ужасы, триллер
Год выпуска: 2016
Продолжительность: 01:39:04
Перевод: Двухголосый закадровый [Levelin]
Cубтитры: нет
Оригинальная аудиодорожка: нет-Режиссер: Даррен Линн Боусман
В ролях: Джессика Лаундес, Джо Андерсон, Лин Шэй, Майкл Паре, Дэйтон Калли, Брайан Бэтт, Джон МакКоннелл, Эйден Флауэрс, Томас Мерфи, Джэй Хьюджули-Описание: Журналистка Джулия ведет расследование странных обстоятельств смерти своей сестры. Муж, одержимый жуткими видениями, убил жену и сына, а комната, где произошло преступление, исчезла. Джулия выясняет, что такое уже случалось раньше, а покупателем домов, где произошли убийства, всегда выступал человек по имени Джеремайя Крон. Следы таинственного покупателя приводят Джулию в затерявшееся на карте место, где из материалов пропавших комнат строится дом с призраками. Но самое страшное — не сам дом, а кому и для чего он нужен.-Сэмпл: http://multi-up.com/1119817- -Тип релиза: BDRip 720p
Контейнер: MKV
Видео: AVC, 1280x534, 16:9, 23.976 FPS, 5 500 kb/s
Аудио: AC-3, 2 ch., 48.0 kHz, 192 kb/s [Levelin]

MediaInfo

General
Unique ID : 227815999049186193898038348031361329187 (0xAB63C3F3BD85CE64A4E9DF27F888A823)
Complete name : D:\Kino\Abattoir.2016.720p.BDrip.mkv
Format : Matroska
Format version : Version 4 / Version 2
File size : 3.79 GiB
Duration : 1 h 39 min
Overall bit rate : 5 472 kb/s
Encoded date : UTC 2016-09-25 14:56:22
Writing application : mkvmerge v8.3.0 ('Over the Horizon') 64bit
Writing library : libebml v1.3.1 + libmatroska v1.4.2
Video
ID : 1
Format : AVC
Format/Info : Advanced Video Codec
Format profile : High@L4.1
Format settings, CABAC : Yes
Format settings, ReFrames : 4 frames
Codec ID : V_MPEG4/ISO/AVC
Duration : 1 h 39 min
Bit rate : 5 500 kb/s
Width : 1 280 pixels
Height : 534 pixels
Display aspect ratio : 2.40:1
Original display aspect rat : 2.40:1
Frame rate mode : Constant
Frame rate : 23.976 (24000/1001) FPS
Color space : YUV
Chroma subsampling : 4:2:0
Bit depth : 8 bits
Scan type : Progressive
Bits/(Pixel*Frame) : 0.336
Stream size : 3.65 GiB (96%)
Writing library : x264 core 148 r2694 3b70645
Encoding settings : cabac=1 / ref=4 / deblock=1:-2:-2 / analyse=0x3:0x113 / me=umh / subme=7 / psy=1 / psy_rd=1.00:0.15 / mixed_ref=1 / me_range=16 / chroma_me=1 / trellis=1 / 8x8dct=1 / cqm=0 / deadzone=21,11 / fast_pskip=1 / chroma_qp_offset=-3 / threads=40 / lookahead_threads=3 / sliced_threads=0 / nr=0 / decimate=1 / interlaced=0 / bluray_compat=0 / constrained_intra=0 / bframes=3 / b_pyramid=2 / b_adapt=2 / b_bias=0 / direct=3 / weightb=1 / open_gop=0 / weightp=2 / keyint=250 / keyint_min=25 / scenecut=40 / intra_refresh=0 / rc_lookahead=50 / rc=abr / mbtree=1 / bitrate=5500 / ratetol=1.0 / qcomp=0.60 / qpmin=0 / qpmax=69 / qpstep=4 / vbv_maxrate=31250 / vbv_bufsize=31250 / nal_hrd=none / filler=0 / ip_ratio=1.40 / aq=1:1.00
Language : English
Default : Yes
Forced : No
Audio
ID : 2
Format : AC-3
Format/Info : Audio Coding 3
Mode extension : CM (complete main)
Format settings, Endianness : Big
Codec ID : A_AC3
Duration : 1 h 39 min
Bit rate mode : Constant
Bit rate : 192 kb/s
Channel(s) : 2 channels
Channel positions : Front: L R
Sampling rate : 48.0 kHz
Frame rate : 31.250 FPS (1536 spf)
Compression mode : Lossy
Stream size : 136 MiB (4%)
Title : Levelin
Language : Russian
Default : Yes
Forced : No

Скриншоты


_________________
Показать сообщения:    

Текущее время: Сегодня 16:53

Часовой пояс: GMT



Вы не можете начинать темы
Вы не можете отвечать на сообщения
Вы не можете редактировать свои сообщения
Вы не можете удалять свои сообщения
Вы не можете голосовать в опросах
Вы не можете прикреплять файлы к сообщениям
Вы не можете скачивать файлы