Штурм Берлина [2013, исторический, WEBRip] :: Ивановский Торрент трекер
Важное объявление!
У Нас Все раздачи мультитрекерные, при нуле пиров в релизах, можете смело вставать на закачку!
Статистика раздачи
Размер:     |    Зарегистрирован:     |    Скачан:     |   
Нет
 
     
 
 
Автор Сообщение

HUNTER

Стаж:
4 года 11 месяцев
Сообщений:
66112

Репутация: 101

[+] [-]
Вне форума [Профиль] [ЛС]

Штурм Берлина
Год выпуска: 2013
Страна: Россия
Жанр: исторический
Продолжительность: 00:12:11
Перевод: Не требуется
Русские субтитры: нет
Описание: Борис Юлин о берлинской операции, штурме и разгроме столицы гитлеровской Германии.
качество: WEBRip
формат: AVI
Видео: xvid, 720x400 (16:9), 25.000 fps, 1 108 Kbps (0.154 bit/pixel)
Аудио: MP3, 48.0 KHz, 2 ch, 192 Kbps, CBR

MediaInfo

Общее
Полное имя : I:\AVI\Штурм Берлина.avi
Формат : AVI
Формат/Информация : Audio Video Interleave
Размер файла : 114 Мбайт
Продолжительность : 12 м.
Общий поток : 1313 Кбит/сек
Программа кодирования : Lavf54.6.100
Видео
Идентификатор : 0
Формат : xvid
Идентификатор кодека : xvid
Продолжительность : 12 м.
Битрейт : 1108 Кбит/сек
Ширина : 720 пикселей
Высота : 400 пикселей
Соотношение сторон : 16:9
Частота кадров : 25,000 кадров/сек
Бит/(Пиксели*Кадры) : 0.154
Размер потока : 96,5 Мбайт (84%)
Аудио
Идентификатор : 1
Формат : MPEG Audio
Версия формата : Version 1
Профиль формата : Layer 3
Режим : Joint stereo
Идентификатор кодека : 55
Идентификатор кодека/Подсказка : MP3
Продолжительность : 12 м.
Вид битрейта : Постоянный
Битрейт : 192 Кбит/сек
Каналы : 2 канала
Частота : 48,0 КГц
Метод сжатия : С потерями
Размер потока : 16,7 Мбайт (15%)
Выравнивание : Соединение по промежуткам
Продолжительность промежутка : 24 мс. (0,60 видеокадр)
Время предзагрузки промежутка : 24 мс.
Библиотека кодирования : LAME3.98.4

Скриншоты


_________________
Показать сообщения:    

Текущее время: Сегодня 04:00

Часовой пояс: GMT



Вы не можете начинать темы
Вы не можете отвечать на сообщения
Вы не можете редактировать свои сообщения
Вы не можете удалять свои сообщения
Вы не можете голосовать в опросах
Вы не можете прикреплять файлы к сообщениям
Вы не можете скачивать файлы