Важное объявление!
У Нас Все раздачи мультитрекерные, при нуле пиров в релизах, можете смело вставать на закачку!
 
Автор Сообщение

konyaxin

Стаж:
2 года 8 месяцев
Сообщений:
4
Вне форума [Профиль] [ЛС]

Симпсоны / The Simpsons
-Оригинальное название: The Simpsons
Русское название: Симпсоны
Год выпуска: 2013
Страна: США
Жанр: Приключения, комедия, сатира
Продолжительность: 20 минут (серия)
Перевод: Профессиональный (многоголосый закадровый) VO-Production

Субтитры: есть (русские [notabenoid], английские)-Производство: FOX
Режиссёр: Мэтт Гроунинг / Matt Groening
-Роли озвучивали: Дэн Кастелланета, Джули Кавнер, Нэнси Картрайт, Ярдли Смит, Гарри Ширер, Хэнк Азария, Памела Хейден, Тресс МакНилл, Карл Видерготт, Мэгги Росвэлл и др.-Описание: Симпсоны живут в вымышленном городе Спрингфилд, со своим обществом и историей. Гомер - отец семейства, который дает плохие советы и работает инспектором безопасности на атомной электростанции; Мардж - любящая мать и жена, старается сохранить спокойствие в семье; Барт - 10 летний хулиган; Лиза - философский 8-летний ребенок; и Мэгги - младенец, который общается посредством соски.-РЕЛИЗ ОТ: V.SERIJ2013-Качество: WEB-DL 720p
Формат: MKV
Видео кодек: h264
Аудио кодек: AC3
Видео:
  • 1-14 серии: MPEG4 Video (H264) 1280x718 23.976fps ~4Mbps,
  • 15 и остальные серии: MPEG4 Video (H264) 1280x720 23.976fps ~4Mbps
Аудио:
  • русская [VO-Production]: Dolby AC3 48000Hz stereo 192Kbps,
  • английская: Dolby AC3 48000Hz 6ch 384Kbps
Скриншоты:
-Список серий
25 сезон (2013 год):
01. Homerland
02. Treehouse of Horror XXIV
03. Four Regrettings and a Funeral
04. YOLO
05. Labor Pains
06. The Kid is All Right
07. Yellow Subterfuge
08. White Christmas Blues
09. Steal This Episode
10. Married To The Blob
11. Specs and the City
12. Diggs
13. The Man Who Grew Too Much
14. The Winter of His Content
15. The War of Art
16. You Don't Have to Live Like a Referee
17. Luca$
18. Days of Future Future
19. What to Expect When Bart's Expecting
20. Brick Like Me
21. Pay Pal
22. The Yellow Badge of Cowardge
Media Info
Код:
F:\Мои документы\Вадим\Моё видео (Вадим)\The Simpsons Season 25 (WEB-DL 720p)\The.Simpsons S25E01.Homerland 720p WEB-DL DD5.1 v.serij2013.mkv
General
Complete name : F:\Мои документы\Вадим\Моё видео (Вадим)\The Simpsons Season 25 (WEB-DL 720p)\The.Simpsons S25E01.Homerland 720p WEB-DL DD5.1 v.serij2013.mkv
Format : Matroska
File size : 645 MiB
Duration : 21mn 13s
Overall bit rate : 4 250 Kbps
Encoded date : UTC 2013-12-10 04:07:14
Writing application : mkvmerge v5.8.0 ('No Sleep / Pillow') built on Sep  2 2012 15:37:04
Writing library : libebml v1.2.3 + libmatroska v1.3.0
Video #1
ID : 1
Format : AVC
Format/Info : Advanced Video Codec
Format profile : High@L3.1
Format settings, CABAC : No
Format settings, ReFrames : 2 frames
Format settings, GOP : M=2, N=32
Muxing mode : Container profile=Unknown@3.1
Codec ID : V_MPEG4/ISO/AVC
Duration : 21mn 13s
Bit rate mode : Variable
Bit rate : 3 589 Kbps
Width : 1 280 pixels
Height : 718 pixels
Display aspect ratio : 16:9
Frame rate : 23.976 fps
Color space : YUV
Chroma subsampling : 4:2:0
Bit depth : 8 bits
Scan type : Progressive
Bits/(Pixel*Frame) : 0.163
Stream size : 545 MiB (84%)
Language : English
Color primaries : BT.709-5, BT.1361, IEC 61966-2-4, SMPTE RP177
Transfer characteristics : BT.709-5, BT.1361
Matrix coefficients : BT.709-5, BT.1361, IEC 61966-2-4 709, SMPTE RP177
Audio #2
ID : 2
Format : AC-3
Format/Info : Audio Coding 3
Mode extension : CM (complete main)
Codec ID : A_AC3
Duration : 21mn 13s
Bit rate mode : Constant
Bit rate : 192 Kbps
Channel(s) : 2 channels
Channel positions : Front: L R
Sampling rate : 48.0 KHz
Bit depth : 16 bits
Video delay : 16ms
Stream size : 29.2 MiB (5%)
Title : VO-Production
Language : Russian
Audio #3
ID : 3
Format : AC-3
Format/Info : Audio Coding 3
Mode extension : CM (complete main)
Codec ID : A_AC3
Duration : 21mn 13s
Bit rate mode : Constant
Bit rate : 384 Kbps
Channel(s) : 6 channels
Channel positions : Front: L C R, Side: L R, LFE
Sampling rate : 48.0 KHz
Bit depth : 16 bits
Video delay : 16ms
Stream size : 58.3 MiB (9%)
Title : Original
Language : English
Text #4
ID : 4
Format : UTF-8
Codec ID : S_TEXT/UTF8
Codec ID/Info : UTF-8 Plain Text
Language : Russian
Text #5
ID : 5
Format : UTF-8
Codec ID : S_TEXT/UTF8
Codec ID/Info : UTF-8 Plain Text
Language : English
-Все раздачи мультсериала-Источник:
Показать сообщения:    

Текущее время: Сегодня 22:25

Часовой пояс: GMT



Вы не можете начинать темы
Вы не можете отвечать на сообщения
Вы не можете редактировать свои сообщения
Вы не можете удалять свои сообщения
Вы не можете голосовать в опросах
Вы не можете прикреплять файлы к сообщениям
Вы не можете скачивать файлы
Наши партнеры: интернет магазин Ивановского трикотажа textilla.ru