Пираты Карибского моря: Трилогия / Pirates of the Caribbean: Trilogy (Гор Вербински / Gore Verbinski) [2003, 2006, 2007, США, Фэнтези, боевик, приключения, WEB-DLRip] [Open Matte / Локализованный видеоряд] Dub :: Ивановский Торрент трекер
Важное объявление!
У Нас Все раздачи мультитрекерные, при нуле пиров в релизах, можете смело вставать на закачку!
Статистика раздачи
Размер:     |    Зарегистрирован:     |    Скачан:     |   
Нет
 
     
 
 
Автор Сообщение

HUNTER

Стаж:
4 года 11 месяцев
Сообщений:
66077

Репутация: 101

[+] [-]
Вне форума [Профиль] [ЛС]

Пираты Карибского моря / Pirates of the Caribbean
«Трилогия»- -

Пираты Карибского моря: Проклятие Чёрной Жемчужины

Пираты Карибского моря: Проклятие Чёрной Жемчужины / Pirates of The Caribbean: Curse of The Black Pearl-
Год выпуска: 2003
Выпущено: США / Walt Disney Pictures, Jerry Bruckheimer Films
Жанр: фэнтези, боевик, приключения
Продолжительность: 02:23:15
Перевод: Профессиональный (полное дублирование)
Cубтитры: Русские (форсированные вшитые с исходника)-Режиссер:
Гор Вербински / Gore Verbinski-В ролях:
Джонни Депп (Jack Sparrow), Джеффри Раш (Barbossa), Орландо Блум (Will Turner), Кира Найтли (Elizabeth Swann), Джек Девенпорт (Norrington), Кевин МакНэлли (Joshamee Gibbs), Джонатан Прайс (Governor Weatherby Swann), Ли Аренберг (Pintel), Макензи Крук (Ragetti), Дэвид Бэйли (Cotton), Дэмиан О’Хейр (Lt. Gillette)-Описание:
Жизнь харизматичного авантюриста, капитана Джека Воробья, полная увлекательных приключений, резко меняется, когда его заклятый враг — капитан Барбосса — похищает корабль Джека, Черную Жемчужину, а затем нападает на Порт Ройал и крадет прекрасную дочь губернатора, Элизабет Свонн.
Друг детства Элизабет, Уилл Тернер, вместе с Джеком возглавляет спасательную экспедицию на самом быстром корабле Британии, в попытке вызволить девушку из плена и заодно отобрать у злодея Черную Жемчужину. Вслед за этой парочкой отправляется амбициозный коммодор Норрингтон, который к тому же числится женихом Элизабет.
Однако Уилл не знает, что над Барбоссой висит вечное проклятие, при лунном свете превращающее его с командой в живых скелетов. Проклятье будет снято лишь тогда, когда украденное золото Ацтеков будет возвращено пиратами на старое место.-| IMDB | КиноПоиск | Сэмпл |-Качество: WEB-DLRip [Pirates of the Caribbean The Curse of the Black Pearl (2003) WEB-DL 1080p [Open Matte] -BLUEBIRD]
Формат: AVI
Видео: 688x384 (1.79:1), 23.976 fps, XviD build 67 ~1257 kbps avg, 0.20 bit/pixel
Аудио: 48 kHz, AC3 Dolby Digital, 2/0 (L,R) ch, ~192 kbps-Скриншоты

MediaInfo

Код:
Общее
Полное имя                               : D:\Piraty_Karibskoro_morya_1_2003_WEB-DLRip_[Open_Matte]_by_Dalemake.avi
Формат                                   : AVI
Формат/Информация                        : Audio Video Interleave
Размер файла                             : 1,46 Гбайт
Продолжительность                        : 2 ч. 23 м.
Общий поток                              : 1459 Кбит/сек
Программа кодирования                    : VirtualDubMod 1.5.10.3 | www.virtualdub-fr.org || (build 2550/release)
Библиотека кодирования                   : VirtualDubMod build 2550/release
Видео
Идентификатор                            : 0
Формат                                   : MPEG-4 Visual
Профиль формата                          : Advanced Simple@L5
Параметр BVOP формата                    : 1
Параметр QPel формата                    : Нет
Параметр GMC формата                     : Без точки перехода
Параметр матрицы формата                 : Выборочная
Идентификатор кодека                     : XVID
Идентификатор кодека/Подсказка           : XviD
Продолжительность                        : 2 ч. 23 м.
Битрейт                                  : 1258 Кбит/сек
Ширина                                   : 688 пикселей
Высота                                   : 384 пикселя
Соотношение сторон                       : 16:9
Частота кадров                           : 23,976 кадра/сек
Цветовое пространство                    : YUV
Субдискретизация насыщенности            : 4:2:0
Битовая глубина                          : 8 бит
Тип развёртки                            : Прогрессивная
Метод сжатия                             : С потерями
Бит/(Пиксели*Кадры)                      : 0.199
Размер потока                            : 1,26 Гбайт (86%)
Библиотека кодирования                   : XviD 67
Аудио
Идентификатор                            : 1
Формат                                   : AC-3
Формат/Информация                        : Audio Coding 3
Расширение режима                        : CM (complete main)
Параметр Endianness формата              : Big
Идентификатор кодека                     : 2000
Продолжительность                        : 2 ч. 23 м.
Вид битрейта                             : Постоянный
Битрейт                                  : 192 Кбит/сек
Каналы                                   : 2 канала
Расположение каналов                     : Front: L R
Частота                                  : 48,0 КГц
Битовая глубина                          : 16 бит
Метод сжатия                             : С потерями
Размер потока                            : 197 Мбайт (13%)
Выравнивание                             : Разделение по промежуткам
Продолжительность промежутка             : 42  мс. (1,00 видеокадр)
Время предзагрузки промежутка            : 500  мс.

Пираты Карибского моря: Сундук мертвеца

Пираты Карибского моря 2: Сундук Мертвеца / Pirates of the Caribbean: Dead Man's Chest-
Год выпуска: 2006
Выпущено: США / Walt Disney Pictures, Jerry Bruckheimer Films
Жанр: фэнтези, боевик, приключения
Продолжительность: 02:30:44
Перевод: Профессиональный (полное дублирование)
Cубтитры: Русские (форсированные вшитые с исходника)-Режиссер:
Гор Вербински / Gore Verbinski-В ролях:
Джонни Депп (Jack Sparrow), Орландо Блум (Will Turner), Кира Найтли (Elizabeth Swann), Джек Девенпорт (Norrington), Билл Найи (Davy Jones), Стеллан Скарсгард (Bootstrap Bill), Кевин МакНэлли (Gibbs), Ли Аренберг (Pintel), Макензи Крук (Ragetti), Том Холландер (Cutler Beckett), Джонатан Прайс (Governor Weatherby Swann)-Описание:
Вновь оказавшись в ирреальном мире, лихой капитан Джек Воробей неожиданно узнает, что является должником легендарного капитана «Летучего Голландца» Дэйви Джонса. Джек должен в кратчайшие сроки решить эту проблему, иначе ему грозит вечное проклятие и рабское существование после смерти. Вдобавок ко всему, срывается свадьба Уилла Тернера и Элизабет Суонн, которые вынуждены составить Джеку компанию в его злоключениях…-| IMDB | КиноПоиск | Сэмпл |-Качество: WEB-DLRip [Pirates of the Caribbean Dead Man's Chest (2006) WEB-DL 1080p [Open Matte] -BLUEBIRD]
Формат: AVI
Видео: 688x384 (1.79:1), 23.976 fps, XviD build 67 ~1184 kbps avg, 0.19 bit/pixel
Аудио: 48 kHz, AC3 Dolby Digital, 2/0 (L,R) ch, ~192 kbps-Скриншоты

MediaInfo

Код:
Общее
Полное имя                               : D:\Piraty_Karibskoro_morya_2_2003_WEB-DLRip_[Open_Matte]_by_Dalemake.avi
Формат                                   : AVI
Формат/Информация                        : Audio Video Interleave
Размер файла                             : 1,46 Гбайт
Продолжительность                        : 2 ч. 30 м.
Общий поток                              : 1386 Кбит/сек
Программа кодирования                    : VirtualDubMod 1.5.10.3 | www.virtualdub-fr.org || (build 2550/release)
Библиотека кодирования                   : VirtualDubMod build 2550/release
Видео
Идентификатор                            : 0
Формат                                   : MPEG-4 Visual
Профиль формата                          : Advanced Simple@L5
Параметр BVOP формата                    : 1
Параметр QPel формата                    : Нет
Параметр GMC формата                     : Без точки перехода
Параметр матрицы формата                 : Выборочная
Идентификатор кодека                     : XVID
Идентификатор кодека/Подсказка           : XviD
Продолжительность                        : 2 ч. 30 м.
Битрейт                                  : 1184 Кбит/сек
Ширина                                   : 688 пикселей
Высота                                   : 384 пикселя
Соотношение сторон                       : 16:9
Частота кадров                           : 23,976 кадра/сек
Цветовое пространство                    : YUV
Субдискретизация насыщенности            : 4:2:0
Битовая глубина                          : 8 бит
Тип развёртки                            : Прогрессивная
Метод сжатия                             : С потерями
Бит/(Пиксели*Кадры)                      : 0.187
Размер потока                            : 1,25 Гбайт (85%)
Библиотека кодирования                   : XviD 67
Аудио
Идентификатор                            : 1
Формат                                   : AC-3
Формат/Информация                        : Audio Coding 3
Расширение режима                        : CM (complete main)
Параметр Endianness формата              : Big
Идентификатор кодека                     : 2000
Продолжительность                        : 2 ч. 30 м.
Вид битрейта                             : Постоянный
Битрейт                                  : 192 Кбит/сек
Каналы                                   : 2 канала
Расположение каналов                     : Front: L R
Частота                                  : 48,0 КГц
Битовая глубина                          : 16 бит
Метод сжатия                             : С потерями
Размер потока                            : 207 Мбайт (14%)
Выравнивание                             : Разделение по промежуткам
Продолжительность промежутка             : 42  мс. (1,00 видеокадр)
Время предзагрузки промежутка            : 500  мс.

Пираты Карибского моря: На краю Света

Пираты Карибского моря 3: На краю Света / Pirates of the Caribbean: At World's End-
Год выпуска: 2007
Выпущено: США / Walt Disney Pictures, Jerry Bruckheimer Films
Жанр: фэнтези, боевик, приключения
Продолжительность: 02:48:38
Перевод: Профессиональный (полное дублирование)
Cубтитры: Русские (форсированные вшитые с исходника)-Режиссер:
Гор Вербински / Gore Verbinski-В ролях:
Джонни Депп (Jack Sparrow), Джеффри Раш (Captain Hector Barbossa), Орландо Блум (Will Turner), Кира Найтли (Elizabeth Swann), Том Холландер (Cutler Beckett), Билл Найи (Davy Jones), Стеллан Скарсгард (Bootstrap Bill), Наоми Харрис (Tia Dalma), Джек Девенпорт (Norrington), Чоу Юнь-Фат (Captain Sao Feng), Джонатан Прайс (Governor Weatherby Swann)-Описание:
Новые приключения Джека Воробья и его друзей Уилла Тернера и Элизабет Суонн. На этот раз Уиллу и Элизабет придется объединиться с самим Капитаном Барбоссой для того, чтобы отправиться на край света и спасти своего друга — Джека. Ситуация осложняется тем, что Элизабет попадает к сингапурским пиратам…-| IMDB | КиноПоиск | Сэмпл |-Качество: WEB-DLRip [Pirates of the Caribbean At World's End(2007) WEB-DL 1080p [Open Matte] -BLUEBIRD]
Формат: AVI
Видео: 688x384 (1.79:1), 23.976 fps, XviD build 67 ~1038 kbps avg, 0.16 bit/pixel
Аудио: 48 kHz, AC3 Dolby Digital, 2/0 (L,R) ch, ~192 kbps-Скриншоты

MediaInfo

Код:
Общее
Полное имя                               : D:\Piraty_Karibskoro_morya_3_2003_WEB-DLRip_[Open_Matte]_by_Dalemake.avi
Формат                                   : AVI
Формат/Информация                        : Audio Video Interleave
Размер файла                             : 1,46 Гбайт
Продолжительность                        : 2 ч. 48 м.
Общий поток                              : 1240 Кбит/сек
Программа кодирования                    : VirtualDubMod 1.5.10.3 | www.virtualdub-fr.org || (build 2550/release)
Библиотека кодирования                   : VirtualDubMod build 2550/release
Видео
Идентификатор                            : 0
Формат                                   : MPEG-4 Visual
Профиль формата                          : Advanced Simple@L5
Параметр BVOP формата                    : 1
Параметр QPel формата                    : Нет
Параметр GMC формата                     : Без точки перехода
Параметр матрицы формата                 : Выборочная
Идентификатор кодека                     : XVID
Идентификатор кодека/Подсказка           : XviD
Продолжительность                        : 2 ч. 48 м.
Битрейт                                  : 1038 Кбит/сек
Ширина                                   : 688 пикселей
Высота                                   : 384 пикселя
Соотношение сторон                       : 16:9
Частота кадров                           : 23,976 кадра/сек
Цветовое пространство                    : YUV
Субдискретизация насыщенности            : 4:2:0
Битовая глубина                          : 8 бит
Тип развёртки                            : Прогрессивная
Метод сжатия                             : С потерями
Бит/(Пиксели*Кадры)                      : 0.164
Размер потока                            : 1,22 Гбайт (84%)
Библиотека кодирования                   : XviD 67
Аудио
Идентификатор                            : 1
Формат                                   : AC-3
Формат/Информация                        : Audio Coding 3
Расширение режима                        : CM (complete main)
Параметр Endianness формата              : Big
Идентификатор кодека                     : 2000
Продолжительность                        : 2 ч. 48 м.
Вид битрейта                             : Постоянный
Битрейт                                  : 192 Кбит/сек
Каналы                                   : 2 канала
Расположение каналов                     : Front: L R
Частота                                  : 48,0 КГц
Битовая глубина                          : 16 бит
Метод сжатия                             : С потерями
Размер потока                            : 231 Мбайт (15%)
Выравнивание                             : Разделение по промежуткам
Продолжительность промежутка             : 42  мс. (1,00 видеокадр)
Время предзагрузки промежутка            : 500  мс.
-Релиз групп [url=viewtopic.php?t=1677970] [/url] | -

Сравнение

[url=viewtopic.php?t=5146088]http://rutracker.org/forum/viewtopic.php?t=5146088[/url]
http://screenshotcomparison.com/comparison/196051
miha2154 писал(а):
69682852остались послерекламные вставки с названием фильма и всплывающая реклама
Если нужно сравнить что-то еще пишите, рипов много, я запутался уже)

Исходник 1

Цитата:
Цитата:

Исходник с онлайн кинотеатра.
Видео ряд локализован.
Полноценная Open Matte версия фильма, имеет большее наполнение кадра со всех сторон, по сравнению с блюрэй.


Исходник 2

Цитата:
Цитата:

Исходник с онлайн кинотеатра.
Видео ряд локализован.
Open Matte версия фильма, имеет большее наполнение кадра, по сравнению с блюрэй


Исходник 3

Цитата:
Цитата:

Исходник с онлайн кинотеатра.
Видео ряд локализован.
Open Matte версия фильма, имеет большее наполнение кадра, по сравнению с блюрэй


- -

_________________
Показать сообщения:    

Текущее время: Сегодня 10:36

Часовой пояс: GMT



Вы не можете начинать темы
Вы не можете отвечать на сообщения
Вы не можете редактировать свои сообщения
Вы не можете удалять свои сообщения
Вы не можете голосовать в опросах
Вы не можете прикреплять файлы к сообщениям
Вы не можете скачивать файлы