Важное объявление!
У Нас Все раздачи мультитрекерные, при нуле пиров в релизах, можете смело вставать на закачку!
 
Автор Сообщение

HUNTER

Стаж:
4 года 11 месяцев
Сообщений:
66039

Репутация: 101

[+] [-]
Вне форума [Профиль] [ЛС]

Не дышиDon't Breathe«Когда охотник становится жертвой»-
Год выпуска: 2016
Страна: США
Жанр: ужасы, триллер
Продолжительность: 01:28:29-Перевод: Дубляж [iTunes], авторский (одноголосый) Д.Есарев
Субтитры: Русские (форс.), Русские (iTunes), Русские (sobolevsky1840), Английские (Full + SDH + SDH-Colored)
Режиссер: Федерико Альварес
В ролях: Стивен Лэнг, Джейн Леви, Дилан Миннетт, Дэниэл Дзоватто, Эмма Берковичи, Франциска Тёрёчик, Кристиан Сахиа, Катя Бокор, Сергей Онопко, Оливия Гиллис
Описание: Грабители забираются в дом одинокого слепого старика с целью украсть огромную сумму, которая, по слухам, спрятана где-то внутри. Казалось бы - что может быть проще, чем вынести деньги из дома практически беспомощного человека. Но они жестоко ошибаются: преследуемый становится преследователем. И тайна, которую он хранит, гораздо страшнее, чем обычные пенсионные накопления. --Качество: BDRip 720p
Контейнер: MKV
Видео кодек: AVC
Аудио кодек: AC3
Видео: AVC, 1280x534 (2.40:1), 5 410 kbps, 23.976 fps, 0.330 bpp
Аудио: Русский / AC3 / 5.1 / 48 kHz / 384 kbps / 16 bit
Аудио: Русский / AC3 / 5.1 / 48 kHz / 640 kbps / 16 bit
Аудио: Английский / AC3 / 5.1 / 48 kHz / 640 kbps / 16 bit

-

Скриншоты

Media Info

General
Unique ID : 190328359286352781814005049106526880938 (0x8F2FE89CBBDA06FD97FD6501770FC4AA)
Complete name : E:\Don't.Breathe.2016.DUB.BDRip.720p.mkv
Format : Matroska
Format version : Version 4 / Version 2
File size : 4.38 GiB
Duration : 1h 28mn
Overall bit rate : 7 076 Kbps
Movie name : and77200 [R.G. RustorRipper's]
Encoded date : UTC 2016-12-02 21:16:31
Writing application : mkvmerge v7.8.0 ('River Man') 64bit built on Mar 27 2015 16:31:37
Writing library : libebml v1.3.1 + libmatroska v1.4.2
Video
ID : 1
Format : AVC
Format/Info : Advanced Video Codec
Format profile : High@L4.1
Format settings, CABAC : Yes
Format settings, ReFrames : 5 frames
Codec ID : V_MPEG4/ISO/AVC
Duration : 1h 28mn
Bit rate : 5 410 Kbps
Width : 1 280 pixels
Height : 534 pixels
Display aspect ratio : 2.40:1
Frame rate mode : Constant
Frame rate : 23.976 fps
Color space : YUV
Chroma subsampling : 4:2:0
Bit depth : 8 bits
Scan type : Progressive
Bits/(Pixel*Frame) : 0.330
Stream size : 3.26 GiB (74%)
Writing library : x264 core 148 r2721M 72d53ab
Encoding settings : cabac=1 / ref=5 / deblock=1:-1:-1 / analyse=0x3:0x133 / me=umh / subme=9 / psy=1 / psy_rd=1.00:0.15 / mixed_ref=1 / me_range=4 / chroma_me=1 / trellis=1 / 8x8dct=1 / cqm=0 / deadzone=21,11 / fast_pskip=1 / chroma_qp_offset=-3 / threads=5 / lookahead_threads=1 / sliced_threads=0 / nr=0 / decimate=1 / interlaced=0 / bluray_compat=0 / constrained_intra=0 / bframes=5 / b_pyramid=2 / b_adapt=2 / b_bias=0 / direct=3 / weightb=1 / open_gop=0 / weightp=2 / keyint=230 / keyint_min=23 / scenecut=40 / intra_refresh=0 / rc_lookahead=40 / rc=2pass / mbtree=1 / bitrate=5410 / ratetol=1.0 / qcomp=0.60 / qpmin=0 / qpmax=69 / qpstep=4 / cplxblur=20.0 / qblur=0.5 / ip_ratio=1.40 / aq=1:1.00
Language : English
Default : Yes
Forced : No
DURATION : 01:28:31.765000000
NUMBER_OF_FRAMES : 127355
NUMBER_OF_BYTES : 3591896676
_STATISTICS_WRITING_APP : mkvmerge v7.8.0 ('River Man') 64bit built on Mar 27 2015 16:31:37
_STATISTICS_WRITING_DATE_UT : 2016-12-02 21:16:31
_STATISTICS_TAGS : BPS DURATION NUMBER_OF_FRAMES NUMBER_OF_BYTES
Audio #1
ID : 2
Format : AC-3
Format/Info : Audio Coding 3
Mode extension : CM (complete main)
Format settings, Endianness : Big
Codec ID : A_AC3
Duration : 1h 28mn
Bit rate mode : Constant
Bit rate : 384 Kbps
Channel(s) : 6 channels
Channel positions : Front: L C R, Side: L R, LFE
Sampling rate : 48.0 KHz
Compression mode : Lossy
Stream size : 243 MiB (5%)
Title : iTunes
Language : Russian
Default : Yes
Forced : No
DURATION : 01:28:31.936000000
NUMBER_OF_FRAMES : 165998
NUMBER_OF_BYTES : 254972928
_STATISTICS_WRITING_APP : mkvmerge v7.8.0 ('River Man') 64bit built on Mar 27 2015 16:31:37
_STATISTICS_WRITING_DATE_UT : 2016-12-02 21:16:31
_STATISTICS_TAGS : BPS DURATION NUMBER_OF_FRAMES NUMBER_OF_BYTES
Audio #2
ID : 3
Format : AC-3
Format/Info : Audio Coding 3
Mode extension : CM (complete main)
Format settings, Endianness : Big
Codec ID : A_AC3
Duration : 1h 28mn
Bit rate mode : Constant
Bit rate : 640 Kbps
Channel(s) : 6 channels
Channel positions : Front: L C R, Side: L R, LFE
Sampling rate : 48.0 KHz
Compression mode : Lossy
Stream size : 405 MiB (9%)
Title : D.Yesarev
Language : Russian
Default : No
Forced : No
DURATION : 01:28:32.320000000
NUMBER_OF_FRAMES : 166010
NUMBER_OF_BYTES : 424985600
_STATISTICS_WRITING_APP : mkvmerge v7.8.0 ('River Man') 64bit built on Mar 27 2015 16:31:37
_STATISTICS_WRITING_DATE_UT : 2016-12-02 21:16:31
_STATISTICS_TAGS : BPS DURATION NUMBER_OF_FRAMES NUMBER_OF_BYTES
Audio #3
ID : 4
Format : AC-3
Format/Info : Audio Coding 3
Mode extension : CM (complete main)
Format settings, Endianness : Big
Codec ID : A_AC3
Duration : 1h 28mn
Bit rate mode : Constant
Bit rate : 640 Kbps
Channel(s) : 6 channels
Channel positions : Front: L C R, Side: L R, LFE
Sampling rate : 48.0 KHz
Compression mode : Lossy
Stream size : 405 MiB (9%)
Title : Original
Language : English
Default : No
Forced : No
DURATION : 01:28:31.904000000
NUMBER_OF_FRAMES : 165997
NUMBER_OF_BYTES : 424952320
_STATISTICS_WRITING_APP : mkvmerge v7.8.0 ('River Man') 64bit built on Mar 27 2015 16:31:37
_STATISTICS_WRITING_DATE_UT : 2016-12-02 21:16:31
_STATISTICS_TAGS : BPS DURATION NUMBER_OF_FRAMES NUMBER_OF_BYTES
Text #1
ID : 5
Format : UTF-8
Codec ID : S_TEXT/UTF8
Codec ID/Info : UTF-8 Plain Text
Title : Forced
Language : Russian
Default : Yes
Forced : No
DURATION : 01:24:00.966000000
NUMBER_OF_FRAMES : 16
NUMBER_OF_BYTES : 580
_STATISTICS_WRITING_APP : mkvmerge v7.8.0 ('River Man') 64bit built on Mar 27 2015 16:31:37
_STATISTICS_WRITING_DATE_UT : 2016-12-02 21:16:31
_STATISTICS_TAGS : BPS DURATION NUMBER_OF_FRAMES NUMBER_OF_BYTES
Text #2
ID : 6
Format : UTF-8
Codec ID : S_TEXT/UTF8
Codec ID/Info : UTF-8 Plain Text
Title : iTunes
Language : Russian
Default : No
Forced : No
DURATION : 01:22:04.966000000
NUMBER_OF_FRAMES : 507
NUMBER_OF_BYTES : 21884
_STATISTICS_WRITING_APP : mkvmerge v7.8.0 ('River Man') 64bit built on Mar 27 2015 16:31:37
_STATISTICS_WRITING_DATE_UT : 2016-12-02 21:16:31
_STATISTICS_TAGS : BPS DURATION NUMBER_OF_FRAMES NUMBER_OF_BYTES
Text #3
ID : 7
Format : UTF-8
Codec ID : S_TEXT/UTF8
Codec ID/Info : UTF-8 Plain Text
Title : sobolevsky1840
Language : Russian
Default : No
Forced : No
DURATION : 01:20:39.220000000
NUMBER_OF_FRAMES : 469
NUMBER_OF_BYTES : 19578
_STATISTICS_WRITING_APP : mkvmerge v7.8.0 ('River Man') 64bit built on Mar 27 2015 16:31:37
_STATISTICS_WRITING_DATE_UT : 2016-12-02 21:16:31
_STATISTICS_TAGS : BPS DURATION NUMBER_OF_FRAMES NUMBER_OF_BYTES
Text #4
ID : 8
Format : UTF-8
Codec ID : S_TEXT/UTF8
Codec ID/Info : UTF-8 Plain Text
Title : Full
Language : English
Default : No
Forced : No
DURATION : 01:20:34.849000000
NUMBER_OF_FRAMES : 602
NUMBER_OF_BYTES : 14887
_STATISTICS_WRITING_APP : mkvmerge v7.8.0 ('River Man') 64bit built on Mar 27 2015 16:31:37
_STATISTICS_WRITING_DATE_UT : 2016-12-02 21:16:31
_STATISTICS_TAGS : BPS DURATION NUMBER_OF_FRAMES NUMBER_OF_BYTES
Text #5
ID : 9
Format : UTF-8
Codec ID : S_TEXT/UTF8
Codec ID/Info : UTF-8 Plain Text
Title : SDH
Language : English
Default : No
Forced : No
DURATION : 01:25:45.922000000
NUMBER_OF_FRAMES : 1076
NUMBER_OF_BYTES : 22288
_STATISTICS_WRITING_APP : mkvmerge v7.8.0 ('River Man') 64bit built on Mar 27 2015 16:31:37
_STATISTICS_WRITING_DATE_UT : 2016-12-02 21:16:31
_STATISTICS_TAGS : BPS DURATION NUMBER_OF_FRAMES NUMBER_OF_BYTES
Text #6
ID : 10
Format : UTF-8
Codec ID : S_TEXT/UTF8
Codec ID/Info : UTF-8 Plain Text
Title : SDH-Colored
Language : English
Default : No
Forced : No
DURATION : 01:21:34.729000000
NUMBER_OF_FRAMES : 1070
NUMBER_OF_BYTES : 43129
_STATISTICS_WRITING_APP : mkvmerge v7.8.0 ('River Man') 64bit built on Mar 27 2015 16:31:37
_STATISTICS_WRITING_DATE_UT : 2016-12-02 21:16:31
_STATISTICS_TAGS : BPS DURATION NUMBER_OF_FRAMES NUMBER_OF_BYTES
Menu
00:00:00.000 : :(01)00:00:00:000
00:03:33.462 : :(02)00:03:33:462
00:08:02.732 : :(03)00:08:02:732
00:14:05.177 : :(04)00:14:05:177
00:19:45.851 : :(05)00:19:45:851
00:24:50.029 : :(06)00:24:50:029
00:28:29.540 : :(07)00:28:29:540
00:33:33.094 : :(08)00:33:33:094
00:36:51.416 : :(09)00:36:51:416
00:41:04.295 : :(10)00:41:04:295
00:45:48.244 : :(11)00:45:48:244
00:51:52.400 : :(12)00:51:52:400
00:57:36.661 : :(13)00:57:36:661
01:03:46.239 : :(14)01:03:46:239
01:13:41.917 : :(15)01:13:41:917
01:21:54.701 : :(16)01:21:54:701

_________________
Показать сообщения:    

Текущее время: Сегодня 00:58

Часовой пояс: GMT



Вы не можете начинать темы
Вы не можете отвечать на сообщения
Вы не можете редактировать свои сообщения
Вы не можете удалять свои сообщения
Вы не можете голосовать в опросах
Вы не можете прикреплять файлы к сообщениям
Вы не можете скачивать файлы