Важное объявление!
У Нас Все раздачи мультитрекерные, при нуле пиров в релизах, можете смело вставать на закачку!
Статистика раздачи
Размер:  1.37 GB   |    Зарегистрирован:  3 года 1 месяц   |    Скачан:  1 раз    |   

Полного источника не было: 1 год 2 месяца

 
     
 
 
 
Автор Сообщение

HUNTER

Стаж:
4 года 7 месяцев
Сообщений:
61521

Репутация: 101

[+] [-]
Вне форума [Профиль] [ЛС]

Наша Russia: Элитная жизнь элитных строителей
Год выпуска: 2010
Жанр: ТВ-Шоу
Продолжительность: 01:32:01
Режиссер: Пётр Буслов
В ролях: Михаил Галустян, Сергей Светлаков, Гарик Мартиросян
Описание: Комедийные мини-сюжеты, главные роли в которых принадлежат всем известным героям Равшану и Джамшуту (нарезка из старых серий).
Источник/Качество: DVDRip
Формат: AVI
Видео кодек: XviD
Аудио кодек: AC3
Видео: Xvid 704x384 25.00fps 1925Kbps
Аудио: Dolby AC3 48000Hz stereo 192Kbps

MediaInfo

Общее
Полное имя : Наша Russia - Элитная жизнь элитных строителей.avi
Формат : AVI
Формат/Информация : Audio Video Interleave
Размер файла : 1,37 Гбайт
Продолжительность : 1 ч. 32 м.
Общий поток : 2127 Кбит/сек
Программа кодирования : VirtualDubMod 1.5.10.2 (build 2540/release)
Библиотека кодирования : VirtualDubMod build 2540/release
Видео
Идентификатор : 0
Формат : MPEG-4 Visual
Профиль формата : Advanced Simple@L5
Параметр BVOP формата : 2
Параметр QPel формата : Нет
Параметр GMC формата : Без точки перехода
Параметр матрицы формата : Default (MPEG)
Режим смешивания : Сжатый битовый поток
Идентификатор кодека : XVID
Идентификатор кодека/Подсказка : XviD
Продолжительность : 1 ч. 32 м.
Битрейт : 1925 Кбит/сек
Ширина : 704 пикселя
Высота : 384 пикселя
Соотношение сторон : 16:9
Частота кадров : 25,000 кадров/сек
Цветовое пространство : YUV
Субдискретизация насыщенности : 4:2:0
Битовая глубина : 8 бит
Тип развёртки : Прогрессивная
Метод сжатия : С потерями
Бит/(Пиксели*Кадры) : 0.285
Размер потока : 1,24 Гбайт (91%)
Библиотека кодирования : XviD 1.0.3 (UTC 2004-12-20)
Аудио
Идентификатор : 1
Формат : AC-3
Формат/Информация : Audio Coding 3
Расширение режима : CM (complete main)
Идентификатор кодека : 2000
Продолжительность : 1 ч. 32 м.
Вид битрейта : Постоянный
Битрейт : 192 Кбит/сек
Каналы : 2 канала
Расположение каналов : Front: L R
Частота : 48,0 КГц
Битовая глубина : 16 бит
Метод сжатия : С потерями
Размер потока : 126 Мбайт (9%)
Выравнивание : Разделение по промежуткам
Продолжительность промежутка : 40 мс. (1,00 видеокадр)
Время предзагрузки промежутка : 500 мс.

Скриншоты








-Источник: http://pirat.ca/viewtopic.php?t=6810
[iv-torrents.ru].t21312.torrent 
Торрент: Зарегистрирован   [ 2014-01-09 12:01 ]

Скачать .torrent

Скачать

14 KB

Статус: проверено
Скачан торрент файл: 253
Размер: 1.37 GB  ·  Тип торрента
Оценка релиза:  Средний балл: 0.0 (0 голосов, вы еще не оценили этот релиз)
Поблагодарили: Спасибо
 
Похожие темы

Пожертвовать руб.

_________________
Показать сообщения:    

Текущее время: Сегодня 13:14

Часовой пояс: GMT



Вы не можете начинать темы
Вы не можете отвечать на сообщения
Вы не можете редактировать свои сообщения
Вы не можете удалять свои сообщения
Вы не можете голосовать в опросах
Вы не можете прикреплять файлы к сообщениям
Вы можете скачивать файлы
Наши партнеры: интернет магазин Ивановского трикотажа textilla.ru